<?xml version="1.0" standalone="no"?>
<!DOCTYPE svg PUBLIC "-//W3C//DTD SVG 1.1//EN" "http://www.w3.org/Graphics/SVG/1.1/DTD/svg11.dtd" >
<svg xmlns="http://www.w3.org/2000/svg">
<metadata></metadata>
<defs>
<font id="amblelight" horiz-adv-x="1209" >
<font-face units-per-em="2048" ascent="1548" descent="-500" />
<missing-glyph horiz-adv-x="509" />
<glyph unicode="&#xfb01;" horiz-adv-x="1248" d="M92 1000h168v43q0 104 31 177.5t90.5 120t145 67.5t193.5 21q37 0 78 -2.5t81.5 -6.5t77 -9.5t63.5 -11.5v-106q-24 4 -59 8.5t-74 8.5t-79 6.5t-75 2.5q-87 0 -150.5 -14.5t-105 -47t-61.5 -85.5t-20 -129v-43h284v-110h-284v-890h-136v890h-196zM901 1000h136v-1000 h-136v1000z" />
<glyph unicode="&#xfb02;" horiz-adv-x="1367" d="M92 1000h168v43q0 104 31 177.5t90.5 120t145 67.5t193.5 21q36 0 76.5 -2.5t80 -6.5t75.5 -9t63 -11h118v-1400h-136v1296q-26 4 -59 8t-68 7.5t-70.5 5.5t-66.5 2q-87 0 -150.5 -14.5t-105 -47t-61.5 -85.5t-20 -129v-43h284v-110h-284v-890h-136v890h-196z" />
<glyph horiz-adv-x="2048" />
<glyph horiz-adv-x="2048" />
<glyph unicode="&#xd;" horiz-adv-x="488" />
<glyph unicode=" "  horiz-adv-x="509" />
<glyph unicode="&#x09;" horiz-adv-x="509" />
<glyph unicode="&#xa0;" horiz-adv-x="509" />
<glyph unicode="!" horiz-adv-x="583" d="M226 1360h136v-976h-136v976zM214 126h162v-126h-162v126z" />
<glyph unicode="&#x22;" horiz-adv-x="573" d="M78 1360h156l-73 -420l-83 10v410zM344 1360h158l-74 -420l-84 10v410z" />
<glyph unicode="#" horiz-adv-x="1342" d="M769 344h-296l-45 -344h-136l46 344h-242v110h257l59 436h-264v110h279l49 360h132l-48 -360h296l48 360h134l-48 -360h252v-110h-267l-57 -436h270v-110h-285l-45 -344h-135zM488 454h295l58 436h-296z" />
<glyph unicode="$" d="M526 -20q-59 1 -116.5 7t-109 15t-94 20.5t-70.5 25.5l32 108q42 -14 83.5 -26t87.5 -21t98.5 -14t117.5 -5q71 0 130.5 16.5t102 48.5t66.5 79t24 108q0 55 -26 99t-73 79t-112.5 63t-144.5 51q-81 24 -151.5 58t-122.5 80.5t-82 105.5t-30 132q0 78 26.5 143 t76.5 112.5t122.5 76.5t164.5 36v218h136v-220q50 -4 95 -12t83 -17.5t68.5 -19t52.5 -17.5l-38 -108q-35 13 -70.5 25t-76 21.5t-89 15.5t-110.5 6q-77 0 -134 -17.5t-95 -50.5t-57 -79t-19 -103q0 -46 16.5 -86.5t52.5 -76.5t94 -66.5t142 -56.5q106 -33 187.5 -70.5 t137 -83.5t84 -103t28.5 -129t-24.5 -132t-70.5 -106.5t-111 -77.5t-146 -44v-248h-136v240z" />
<glyph unicode="%" horiz-adv-x="1788" d="M196 1076q0 71 21 127.5t60 95.5t95 60t126 21q67 0 123 -21t96 -60t62 -95.5t22 -127.5q0 -72 -22 -128.5t-62 -95.5t-96 -59.5t-123 -20.5q-70 0 -126 20.5t-95 59.5t-60 95.5t-21 128.5zM332 1076q0 -41 11.5 -76t33 -61.5t52.5 -41.5t69 -15q37 0 68 15t53 41.5 t34 61.5t12 76q0 40 -12 75.5t-34 62t-53 41.5t-68 15q-38 0 -69 -15t-52.5 -41.5t-33 -62t-11.5 -75.5zM994 284q0 71 21.5 127.5t60.5 95.5t95 60t125 21t125 -21t95.5 -60t61 -95.5t21.5 -127.5q0 -72 -21.5 -128.5t-61 -95.5t-95.5 -59.5t-125 -20.5t-125 20.5t-95 59.5 t-60.5 95.5t-21.5 128.5zM1130 284q0 -41 12 -76t33.5 -61.5t52 -41.5t68.5 -15q37 0 68 15t53 41.5t34 61.5t12 76q0 40 -12 75.5t-34 62t-53 41.5t-68 15q-38 0 -68.5 -15t-52 -41.5t-33.5 -62t-12 -75.5zM1314 1360h107l-938 -1360h-112z" />
<glyph unicode="&#x26;" horiz-adv-x="1380" d="M1284 58l-94 -78l-180 189q-92 -86 -205 -137.5t-249 -51.5q-96 0 -180 24.5t-147 70.5t-99 111t-36 146q0 71 27 128t74.5 107t112.5 96.5t142 96.5l-70 74q-36 37 -60 70t-37.5 63t-19 59.5t-5.5 61.5q0 67 24 121.5t69 92t108.5 58t142.5 20.5q72 0 132.5 -20.5 t105 -57.5t69.5 -88.5t25 -113.5q0 -51 -20 -93t-55.5 -79.5t-84 -74.5t-105.5 -77q-11 -8 -21.5 -15t-21.5 -15l389 -407q46 56 83 114.5t66 114.5l86 -72q-34 -65 -73 -125t-84 -114zM230 332q0 -52 24.5 -96t68.5 -76.5t104 -51t131 -18.5q113 0 206.5 45t168.5 115 l-407 429q-60 -39 -114 -76.5t-94.5 -78.5t-64 -87.5t-23.5 -104.5zM628 880q39 26 70.5 48.5t53.5 47.5t34 55t12 71q0 34 -17 65t-45.5 53.5t-65 36t-75.5 13.5q-43 0 -80 -13t-64 -36.5t-42 -57t-15 -73.5q0 -29 7.5 -55.5t19 -50.5t25.5 -44t27 -34l76 -80 q20 13 39.5 26.5t39.5 27.5z" />
<glyph unicode="'" horiz-adv-x="356" d="M94 1360h150l-52 -400l-98 10v390z" />
<glyph unicode="(" horiz-adv-x="704" d="M292 560q0 -153 28.5 -282.5t73.5 -237t99.5 -193t106.5 -149.5l-98 -60q-74 93 -137 197.5t-109.5 220t-73 241.5t-26.5 263q0 142 27 279t75 261t113 229.5t141 184.5l100 -60q-55 -66 -112 -154t-103 -199t-75.5 -246t-29.5 -295z" />
<glyph unicode=")" horiz-adv-x="708" d="M418 592q0 153 -29 282.5t-74.5 237t-101 192.5t-107.5 150l100 60q171 -187 259.5 -417t88.5 -505q0 -142 -27 -279t-75 -261t-113 -229.5t-141 -184.5l-104 60q55 66 113 153.5t104.5 198.5t76.5 246t30 296z" />
<glyph unicode="*" horiz-adv-x="992" d="M575 1380l-29 -344l4 -3l309 177l65 -128l-335 -132l-6 -13l251 -262l-114 -87l-207 298h-9l-199 -310l-122 84l239 271l-8 15l-338 114l64 134l309 -164l6 5l-28 345h148z" />
<glyph unicode="+" horiz-adv-x="1026" d="M445 484h-327v110h327v316h136v-316h334v-110h-334v-318h-136v318z" />
<glyph unicode="," horiz-adv-x="498" d="M204 158h146l-122 -404l-94 14z" />
<glyph unicode="-" horiz-adv-x="794" d="M118 586v120h566v-120h-566z" />
<glyph unicode="." horiz-adv-x="597" d="M246 132h152v-132h-152v132z" />
<glyph unicode="/" horiz-adv-x="843" d="M630 1360h131l-580 -1500h-131z" />
<glyph unicode="0" d="M122 670q0 161 31 292t92.5 224t152.5 143.5t210 50.5q120 0 212 -50.5t154.5 -143.5t94.5 -224t32 -292q0 -162 -32 -290t-94.5 -217t-154.5 -136t-212 -47q-119 0 -210 47t-152.5 136t-92.5 217t-31 290zM258 670q0 -132 21.5 -239t65 -183t109.5 -117t154 -41 q86 0 152.5 41t112 117t69 183t23.5 239t-23.5 242t-69 189.5t-112 124t-152.5 44.5q-88 0 -154 -44.5t-109.5 -124t-65 -189.5t-21.5 -242z" />
<glyph unicode="1" d="M271 0v110h350v1110l-355 -82v110l416 112h75v-1250h333v-110h-819z" />
<glyph unicode="2" d="M1071 110v-110h-885v36q0 140 27.5 239.5t85.5 175.5t148 136.5t214 122.5q66 34 113 70.5t76 75.5t42.5 80.5t13.5 85.5q0 55 -21.5 101t-60.5 78.5t-95 50.5t-125 18q-56 0 -107 -9.5t-98.5 -25.5t-91 -37t-84.5 -44l-50 94q32 21 78 44t101.5 42.5t119.5 32.5t132 13 q100 0 181 -25.5t138 -73t88 -115t31 -152.5q0 -77 -28.5 -137.5t-75.5 -108.5t-109 -87.5t-128 -74.5q-84 -45 -153 -91.5t-118.5 -104t-77 -130.5t-30.5 -170h749z" />
<glyph unicode="3" d="M1006 1004q0 -109 -59 -188t-170 -119q133 -40 204.5 -125.5t71.5 -205.5q0 -86 -35.5 -157t-102.5 -122t-163.5 -79t-217.5 -28q-54 0 -109.5 6t-106.5 18t-95 29t-77 39l54 88q37 -15 74 -28t76 -22t82.5 -14.5t93.5 -5.5q85 0 157 16.5t124 50t81 84.5t29 119 q0 72 -27.5 124.5t-77 87t-117 51.5t-147.5 17h-182v110h182q70 0 129.5 15.5t102 47.5t66.5 81t24 116q0 70 -26.5 119.5t-73 81t-110.5 45.5t-139 14q-47 0 -87 -5.5t-76.5 -16t-71 -24.5t-68.5 -30l-60 88q32 23 76.5 41.5t95.5 31t105.5 19t105.5 6.5q110 0 196.5 -26 t146 -74.5t91 -118t31.5 -157.5z" />
<glyph unicode="4" d="M931 314v-314h-136v314h-725v76l691 970h170v-936h218v-110h-218zM795 424v785l-551 -785h551z" />
<glyph unicode="5" d="M1073 420q0 -98 -31.5 -179t-95 -139t-159 -90t-222.5 -32q-63 0 -123 7t-113 19t-97.5 27.5t-75.5 32.5l46 100q34 -17 69.5 -30.5t77 -24t91 -16t110.5 -5.5q191 0 289 80.5t98 249.5q0 77 -29.5 133.5t-81.5 93.5t-121.5 55t-150.5 18q-77 0 -153 -12t-135 -38 l-106 40l108 650h731v-110h-633l-79 -455q60 17 137.5 26t177.5 9q108 0 195 -29.5t148.5 -83.5t94.5 -129.5t33 -167.5z" />
<glyph unicode="6" d="M666 852q117 0 201.5 -30t138.5 -85.5t80 -133t26 -171.5q0 -83 -30.5 -163.5t-90 -145t-146.5 -104t-200 -39.5q-129 0 -225.5 46.5t-161.5 132t-97.5 205.5t-32.5 266q0 170 39 308.5t113.5 236.5t183 151.5t247.5 53.5q58 0 105 -5t85.5 -14t70.5 -21t60 -26l-42 -96 q-60 26 -124 39t-143 13q-102 0 -185 -35.5t-143 -110.5t-94 -191t-37 -276q36 48 82 84t98.5 61t108.5 37.5t113 12.5zM679 742q-50 0 -104.5 -9t-108.5 -31.5t-105.5 -60t-94.5 -94.5q15 -237 117 -347t286 -110q75 0 132.5 28.5t96 76t58.5 108t20 125.5 q0 66 -16.5 123.5t-52.5 100t-92.5 66.5t-135.5 24z" />
<glyph unicode="7" d="M1088 1360v-112l-574 -1248h-140l571 1240h-823v120h966z" />
<glyph unicode="8" d="M110 366q0 58 19 109t55 94t87.5 75.5t116.5 52.5q-110 38 -170 116t-60 193q0 88 31 157.5t88.5 117.5t139.5 73.5t185 25.5t187.5 -25.5t145 -73.5t94 -117.5t33.5 -157.5q0 -115 -65 -193t-178 -116q66 -20 119.5 -52.5t90.5 -75.5t57 -94t20 -109q0 -93 -36.5 -165 t-102.5 -121t-159 -74.5t-206 -25.5q-112 0 -202.5 25.5t-155 74.5t-99.5 121t-35 165zM246 366q0 -67 26 -118.5t73 -86.5t112.5 -53t144.5 -18t146.5 18t116.5 53t77 86.5t28 118.5q0 59 -28 109.5t-77 87.5t-116.5 58t-146.5 21t-144.5 -20.5t-112.5 -57.5t-73 -87.5 t-26 -110.5zM294 1006q0 -61 22 -108t62.5 -79.5t97.5 -49.5t126 -17q68 0 127.5 17t103 49.5t68.5 79.5t25 108q0 63 -25 112t-68.5 83t-103 51.5t-127.5 17.5q-69 0 -126 -17.5t-97.5 -51.5t-62.5 -83t-22 -112z" />
<glyph unicode="9" d="M550 518q-95 0 -173.5 32t-134.5 88.5t-87.5 133.5t-31.5 166q0 82 31.5 161t91.5 141.5t147 101t198 38.5q118 0 209.5 -39.5t153.5 -123.5t94.5 -215t32.5 -314q0 -160 -37 -290.5t-105.5 -223.5t-166.5 -143.5t-220 -50.5q-64 0 -113.5 5t-90 14t-73.5 21t-63 26 l34 102q63 -27 136 -42.5t161 -15.5q86 0 159 34t126.5 105.5t84 182t32.5 263.5q-71 -77 -173 -117t-222 -40zM534 628q54 0 108.5 8t107 28.5t101 55t90.5 87.5q-9 141 -39 231t-79 141.5t-115.5 71t-147.5 19.5q-73 0 -129 -27.5t-94.5 -74t-58 -107t-19.5 -125.5 t15.5 -121t48.5 -97.5t85 -65.5t126 -24z" />
<glyph unicode=":" horiz-adv-x="612" d="M234 0zM234 838h152v-132h-152v132zM234 132h152v-132h-152v132z" />
<glyph unicode=";" horiz-adv-x="587" d="M134 0zM204 158h146l-122 -404l-94 14zM207 848h152v-132h-152v132z" />
<glyph unicode="&#x3c;" horiz-adv-x="1084" d="M973 224v-132l-855 348v118l855 348v-134l-717 -274z" />
<glyph unicode="=" horiz-adv-x="1253" d="M146 704v110h966v-110h-966zM146 362v110h966v-110h-966z" />
<glyph unicode="&#x3e;" horiz-adv-x="1084" d="M118 774v132l855 -348v-118l-855 -348v134l717 274z" />
<glyph unicode="?" horiz-adv-x="1043" d="M402 356q0 77 9 136.5t29.5 107.5t52.5 87t77 77q48 37 88 69t69 64t45 67t16 78q0 48 -16 88.5t-50.5 70.5t-89.5 46.5t-133 16.5q-55 0 -102 -10t-89 -26.5t-80 -38t-75 -45.5l-54 94q30 22 73 46t95.5 44t113 33t126.5 13q98 0 175.5 -23t131 -65t82 -102.5 t28.5 -135.5q0 -70 -30.5 -127.5t-76 -105.5t-98.5 -89t-99 -78q-26 -22 -42 -48.5t-25 -61.5t-12 -79.5t-3 -102.5h-136zM384 158h162v-158h-162v158z" />
<glyph unicode="@" horiz-adv-x="1877" d="M1745 522q-3 -63 -14.5 -128t-34.5 -125.5t-57.5 -113t-82.5 -91.5t-111 -61.5t-141 -22.5q-69 0 -118 43.5t-66 121.5q-48 -82 -118 -123.5t-170 -41.5q-61 0 -110.5 24t-84 68t-53 107t-18.5 140q0 20 1.5 40t3.5 41q12 121 48 219.5t88 168t116 107t132 37.5 t117.5 -8.5t88.5 -23.5t72.5 -34t68.5 -40l-46 -544q-1 -11 -1.5 -21.5t-0.5 -20.5q0 -47 8.5 -76t22.5 -45.5t32 -22.5t37 -6q60 0 106 33.5t78 92t50 137t21 169.5q1 17 1.5 34t0.5 34q0 160 -37 286.5t-115 214t-198 133.5t-285 46q-158 0 -283.5 -55.5t-215.5 -160 t-141 -254.5t-58 -340q-1 -19 -1.5 -37t-0.5 -36q0 -169 42.5 -301.5t123 -224t197.5 -139.5t266 -48q52 0 106 6.5t105 18.5t97.5 28t84.5 35l12 -112q-38 -22 -87.5 -38t-104 -26.5t-111 -16t-108.5 -5.5q-177 0 -318 56t-239.5 160t-150.5 253.5t-52 336.5q0 43 3 90 q4 211 67.5 381.5t173.5 290t262 184t335 64.5t325.5 -55t240.5 -158t149.5 -250t51.5 -331q0 -16 -0.5 -31.5t-1.5 -32.5zM708 400q-2 -21 -3.5 -40.5t-1.5 -38.5q0 -106 38 -168.5t112 -62.5q37 0 74 12t71 39.5t64.5 71t56.5 106.5l36 468q-32 15 -72.5 25t-88.5 10 q-66 0 -115.5 -27t-84 -80.5t-55.5 -132.5t-31 -182z" />
<glyph unicode="A" horiz-adv-x="1375" d="M982 422h-581l-157 -422h-142l513 1360h148l519 -1360h-142zM442 532h499l-249 667z" />
<glyph unicode="B" horiz-adv-x="1303" d="M216 1360h364q116 0 206 -26t151.5 -74t93 -115t31.5 -149q0 -56 -13 -100.5t-33.5 -79.5t-46.5 -61t-51 -44q54 -16 98 -46t75.5 -72t48.5 -94.5t17 -114.5q0 -86 -34 -157t-99 -121.5t-159.5 -78t-215.5 -27.5h-433v1360zM352 648v-538h274q88 0 161 15.5t125 47.5 t80.5 82t28.5 119q0 68 -23.5 119.5t-65.5 86t-99.5 51.5t-124.5 17h-356zM352 1250v-492h451q15 16 36 36t40.5 48.5t33 69t13.5 98.5q0 63 -26.5 108.5t-75 74.5t-117 43t-153.5 14h-202z" />
<glyph unicode="C" d="M136 682q0 158 43.5 287t124 220.5t195 141t257.5 49.5q106 0 181 -22t128 -49l-46 -95q-54 26 -124.5 41t-145.5 15q-105 0 -192.5 -34t-151 -105.5t-98.5 -183t-35 -265.5q0 -155 38 -266.5t106.5 -184t162.5 -107t205 -34.5q46 0 87.5 6.5t76.5 16t63.5 20.5t50.5 21 l39 -92q-52 -35 -136 -58.5t-196 -23.5q-145 0 -262 50.5t-199.5 142.5t-127 221.5t-44.5 287.5z" />
<glyph unicode="D" horiz-adv-x="1411" d="M216 1360h399q151 0 274 -48.5t209 -137t133 -213.5t47 -279t-47 -279.5t-133 -215t-209 -138.5t-274 -49h-399v1360zM352 1250v-1140h243q119 0 219.5 33.5t173 103.5t113.5 178t41 257t-41 256.5t-113.5 176.5t-173 102t-219.5 33h-243z" />
<glyph unicode="E" horiz-adv-x="1099" d="M216 0v1360h774v-110h-638v-492h571v-110h-571v-538h638v-110h-774z" />
<glyph unicode="F" horiz-adv-x="1007" d="M352 648v-648h-136v1360h731v-110h-595v-492h526v-110h-526z" />
<glyph unicode="G" horiz-adv-x="1425" d="M749 664h499v-596q-98 -41 -204.5 -64.5t-230.5 -23.5q-102 0 -192 25.5t-165.5 72t-134.5 111t-100.5 142t-63 166t-21.5 183.5q0 167 51 297.5t145 220t228 136t301 46.5q54 0 101 -5.5t86 -14.5t69 -19t51 -19l-34 -106q-49 18 -116.5 36t-152.5 18q-131 0 -240 -35 t-187.5 -107.5t-122 -184t-43.5 -263.5q0 -114 40 -220.5t111.5 -188.5t171 -131.5t218.5 -49.5q78 0 157.5 8.5t141.5 31.5v424h-363v110z" />
<glyph unicode="H" horiz-adv-x="1432" d="M216 1360h136v-626h747v626h136v-1360h-136v624h-747v-624h-136v1360z" />
<glyph unicode="I" horiz-adv-x="856" d="M156 0v110h211v1140h-211v110h548v-110h-201v-1140h201v-110h-548z" />
<glyph unicode="J" horiz-adv-x="989" d="M148 156q22 -12 53.5 -24t65.5 -21t67 -15t60 -6q65 0 114 16t82 51t49.5 90.5t16.5 134.5v978h136v-972q0 -118 -28.5 -196.5t-81 -125.5t-126 -66.5t-162.5 -19.5q-95 0 -174 24t-132 54z" />
<glyph unicode="K" horiz-adv-x="1301" d="M558 628h-206v-628h-136v1360h136v-622h204l450 622h174l-496 -674h-2l574 -686h-180z" />
<glyph unicode="L" horiz-adv-x="1080" d="M216 1360h136v-1250h674v-110h-810v1360z" />
<glyph unicode="M" horiz-adv-x="1743" d="M882 639l492 721h172v-1360h-136v1206l-475 -702h-106l-477 705v-1209h-136v1360h173z" />
<glyph unicode="N" horiz-adv-x="1482" d="M216 1360h136l799 -1145v1145h136v-1360h-136l-799 1126v-1126h-136v1360z" />
<glyph unicode="O" horiz-adv-x="1438" d="M135 680q0 161 42 290.5t117.5 220.5t181.5 140t234 49q127 0 236.5 -49t190 -140t126.5 -220.5t46 -290.5q0 -162 -46 -291.5t-126.5 -220.5t-190 -139.5t-236.5 -48.5q-128 0 -234 48.5t-181.5 139.5t-117.5 220.5t-42 291.5zM271 680q0 -150 33 -261t92 -184t139 -109 t175 -36q96 0 180.5 36t147.5 109t99 184t36 261t-36 261t-99 184t-147.5 109t-180.5 36q-95 0 -175 -36t-139 -109t-92 -184t-33 -261z" />
<glyph unicode="P" horiz-adv-x="1228" d="M216 1360h388q124 0 220 -29t162 -83t100.5 -130t34.5 -170t-34.5 -170.5t-100.5 -131t-162 -84.5t-220 -30h-252v-532h-136v1360zM352 1250v-608h228q93 0 168 18.5t127.5 56t81 95t28.5 136.5t-28.5 136.5t-81 94t-127.5 54t-168 17.5h-228z" />
<glyph unicode="Q" horiz-adv-x="1407" d="M121 680q0 161 42 290.5t117.5 220.5t181.5 140t234 49q127 0 236.5 -49t190 -140t126.5 -220.5t46 -290.5q0 -186 -59 -328t-162 -233l286 -289h-162l-220 221q-63 -35 -133.5 -53t-148.5 -18q-128 0 -234 48.5t-181.5 139.5t-117.5 220.5t-42 291.5zM257 680 q0 -150 33 -261t92 -184t139 -109t175 -36q96 0 180.5 36t147.5 109t99 184t36 261t-36 261t-99 184t-147.5 109t-180.5 36q-95 0 -175 -36t-139 -109t-92 -184t-33 -261z" />
<glyph unicode="R" horiz-adv-x="1259" d="M216 1360h425q110 0 195 -24.5t143.5 -71.5t89 -115.5t30.5 -156.5q0 -55 -18 -105.5t-49 -94.5t-73 -80t-91 -60l292 -652h-139l-277 626h-392v-626h-136v1360zM352 1250v-514h457q26 19 53 40.5t49.5 50t37 68.5t14.5 97q0 72 -25 121.5t-70.5 79.5t-111 43.5 t-146.5 13.5h-258z" />
<glyph unicode="S" horiz-adv-x="1115" d="M1004 348q0 -83 -33 -151t-93.5 -116t-146 -74.5t-190.5 -26.5q-62 0 -123.5 5.5t-116 14.5t-100 21.5t-75.5 26.5l32 108q42 -14 83.5 -26t87.5 -21t98.5 -14t117.5 -5q71 0 130.5 16.5t102 48.5t66.5 79t24 108q0 55 -26 99t-73 79t-112.5 63t-144.5 51 q-81 24 -151.5 58t-122.5 80.5t-82 105.5t-30 132q0 84 30.5 152.5t87.5 116.5t139 74.5t186 26.5q64 0 122.5 -7.5t107.5 -18t87.5 -22.5t64.5 -22l-38 -108q-35 13 -70.5 25t-76 21.5t-89 15.5t-110.5 6q-77 0 -134 -17.5t-95 -50.5t-57 -79t-19 -103q0 -46 16.5 -86.5 t52.5 -76.5t94 -66.5t142 -56.5q106 -33 187.5 -70.5t137 -83.5t84 -103t28.5 -129z" />
<glyph unicode="T" horiz-adv-x="1255" d="M705 1250v-1250h-136v1250h-473v110h1068v-110h-459z" />
<glyph unicode="U" horiz-adv-x="1457" d="M1123 1360h136v-960q0 -101 -38.5 -179t-108.5 -131.5t-167 -81.5t-215 -28q-117 0 -212 27.5t-162 81t-103.5 131t-36.5 178.5v962h136v-962q0 -74 28 -131t78 -96.5t119.5 -60t152.5 -20.5q84 0 156 20.5t124.5 60t82.5 96.5t30 131v962z" />
<glyph unicode="V" horiz-adv-x="1353" d="M537 588l142 -401l138 393l299 780h150l-521 -1360h-133l-522 1360h148z" />
<glyph unicode="W" horiz-adv-x="1891" d="M1627 1360h150l-323 -1360h-155l-348 1104l-356 -1104h-151l-324 1360h149l257 -1177l347 1177h153l343 -1171z" />
<glyph unicode="X" horiz-adv-x="1190" d="M598 781l347 579h167l-416 -671l416 -689h-170l-345 590l-345 -590h-170l416 689l-416 671h168z" />
<glyph unicode="Y" horiz-adv-x="1184" d="M594 636l353 724h152l-434 -870v-490h-136v484l-439 876h152z" />
<glyph unicode="Z" horiz-adv-x="1315" d="M164 1360h962v-80l-808 -1170h888l-46 -110h-1004v102l775 1148h-767v110z" />
<glyph unicode="[" horiz-adv-x="749" d="M290 1524h303v-110h-167v-1598h167v-110h-303v1818z" />
<glyph unicode="\" horiz-adv-x="817" d="M53 1360h138l578 -1500h-136z" />
<glyph unicode="]" horiz-adv-x="761" d="M465 1524v-1818h-303v110h168v1598h-168v110h303z" />
<glyph unicode="^" horiz-adv-x="926" d="M236 708h-143l307 652h132l305 -652h-143l-227 503z" />
<glyph unicode="_" horiz-adv-x="955" d="M0 -198v110h955v-110h-955z" />
<glyph unicode="`" horiz-adv-x="591" d="M483 1146l-107 -34l-270 248l158 66z" />
<glyph unicode="a" horiz-adv-x="1136" d="M811 584v38q0 81 -16.5 136t-49 89t-81.5 48.5t-114 14.5q-41 0 -82.5 -5.5t-81 -15.5t-75 -22.5t-63.5 -26.5l-38 98q33 19 75 34t88 25.5t94.5 16.5t94.5 6q87 0 158.5 -18t121.5 -63t77.5 -122t27.5 -195v-622h-98l-23 113q-19 -15 -54.5 -37.5t-85 -43.5t-112 -36.5 t-135.5 -15.5q-79 0 -137 23.5t-95.5 64t-55.5 94.5t-18 114q0 61 30 117t84 98.5t129.5 67.5t166.5 25h268zM469 90q68 0 126 16.5t102 38.5t73.5 43.5t40.5 31.5v264h-245q-87 0 -144.5 -21.5t-91 -54.5t-47.5 -73t-14 -77q0 -40 15.5 -71t42.5 -52.5t63.5 -33t78.5 -11.5 z" />
<glyph unicode="b" horiz-adv-x="1230" d="M212 1402h136v-476q55 42 130.5 68t175.5 26q98 0 177.5 -37t135.5 -104.5t86.5 -163t30.5 -213.5t-30.5 -214t-86.5 -164.5t-135.5 -106t-177.5 -37.5q-57 0 -103 7.5t-85 22.5t-72.5 36.5t-66.5 49.5l-25 -96h-90v1402zM949 502q0 199 -85.5 303.5t-257.5 104.5 q-73 0 -140 -22.5t-118 -57.5v-655q53 -34 119.5 -59.5t138.5 -25.5q172 0 257.5 106t85.5 306z" />
<glyph unicode="c" horiz-adv-x="1004" d="M148 502q0 118 32.5 213.5t95 163t153.5 104.5t207 37q96 0 163.5 -14t115.5 -40l-50 -98q-19 7 -39 14.5t-45.5 13.5t-58 10t-75.5 4q-81 0 -148 -23.5t-115 -73t-74 -127t-26 -184.5t25.5 -185t72.5 -128.5t113.5 -74.5t147.5 -24q89 0 153 16.5t110 37.5l54 -98 q-49 -32 -123.5 -49t-175.5 -17q-122 0 -217.5 37.5t-161 106t-100 164.5t-34.5 214z" />
<glyph unicode="d" horiz-adv-x="1217" d="M890 0v73q-30 -23 -60.5 -40t-66 -29t-79 -18t-98.5 -6q-99 0 -176.5 37.5t-131 106t-81 164.5t-27.5 214t27.5 213.5t81 163t131 104.5t176.5 37q53 0 96 -6t79 -17.5t67.5 -29t61.5 -40.5v473h136v-1400h-136zM306 502q0 -100 18.5 -176.5t57.5 -129t101 -79.5t149 -27 q74 0 140 22t118 57v662q-52 34 -118 56.5t-140 22.5q-87 0 -149 -26.5t-101 -78t-57.5 -127.5t-18.5 -176z" />
<glyph unicode="e" horiz-adv-x="1145" d="M282 516v-24q0 -95 21.5 -170t65 -126.5t109 -78.5t152.5 -27q58 0 103.5 6.5t82 16t64.5 20.5t50 21l41 -102q-61 -33 -148 -52.5t-187 -19.5q-122 0 -213.5 34.5t-153 100t-92.5 160.5t-31 217q0 125 30 223.5t88 166t141.5 103t191.5 35.5q88 0 161 -26t125.5 -76.5 t81.5 -124t29 -167.5v-110h-712zM604 910q-63 0 -116 -14t-93 -47t-66.5 -87.5t-38.5 -135.5h568q0 76 -21 129.5t-56.5 88t-81 50.5t-95.5 16z" />
<glyph unicode="f" horiz-adv-x="772" d="M92 1000h168v74q0 92 21.5 157.5t62.5 107.5t100 61.5t134 19.5q52 0 106 -9t92 -21l-3 -102q-15 4 -36.5 8t-45.5 7t-49 5t-49 2q-53 0 -90.5 -12.5t-61 -40.5t-34.5 -73t-11 -110v-74h284v-110h-284v-890h-136v890h-196z" />
<glyph unicode="g" horiz-adv-x="1226" d="M176 660q0 89 30 156.5t85.5 112.5t134 68t176.5 23q88 0 166 -20h376l-21 -110h-164q39 -44 60 -101t21 -129q0 -84 -32.5 -151t-90.5 -113.5t-138.5 -71t-176.5 -24.5q-53 0 -99 7t-88 21q-25 -24 -39 -53.5t-14 -69.5q0 -9 3 -22.5t8.5 -27t13 -26t15.5 -19.5h330 q85 0 153.5 -19t116.5 -55t74 -87t26 -115q0 -68 -36 -124.5t-102.5 -98t-160.5 -64.5t-210 -23q-57 0 -114 5t-110.5 17t-100 32.5t-80.5 51t-54 72.5t-20 98q0 79 37.5 138.5t127.5 103.5q-19 26 -36 62t-17 85q0 63 26.5 105t72.5 77q-72 46 -110.5 119t-38.5 170z M312 660q0 -56 18 -102t54 -79t90.5 -51t127.5 -18q70 0 126 18t95 51t60 79t21 102q0 63 -24.5 110t-65.5 78t-96 46.5t-116 15.5q-63 0 -116 -15.5t-91.5 -46.5t-60.5 -78t-22 -110zM390 0q-34 -22 -60 -42.5t-44 -43.5t-27 -50.5t-9 -61.5q0 -32 18 -57.5t47 -44 t66 -31.5t75.5 -20.5t75.5 -11t65 -3.5q79 0 147 14.5t117.5 39.5t77.5 59.5t28 75.5q0 37 -13 69.5t-44 56.5t-83.5 37.5t-131.5 13.5h-305z" />
<glyph unicode="h" horiz-adv-x="1221" d="M212 1400h136v-511q152 131 356 131q89 0 151.5 -21.5t101.5 -65.5t56.5 -111.5t17.5 -159.5v-662h-136v662q0 70 -14 117.5t-42 76.5t-68.5 41.5t-94.5 12.5q-97 0 -179 -34t-149 -88v-788h-136v1400z" />
<glyph unicode="i" horiz-adv-x="583" d="M230 1000h137v-1000h-137v1000zM206 1402h176v-158h-176v158z" />
<glyph unicode="j" horiz-adv-x="622" d="M-50 -292q16 -4 37 -7t43.5 -5.5t45 -4t42.5 -1.5q43 0 76.5 13t56 43t34 79.5t11.5 122.5v1052h136v-1052q0 -110 -21.5 -181.5t-63 -113t-102 -57.5t-137.5 -16q-45 0 -90.5 6t-81.5 17zM269 1402h177v-158h-177v158z" />
<glyph unicode="k" horiz-adv-x="1113" d="M461 468h-113v-468h-136v1400h136v-822h114l370 422h162l-421 -474h-2l509 -526h-172z" />
<glyph unicode="l" horiz-adv-x="583" d="M233 1400h136v-1400h-136v1400z" />
<glyph unicode="m" horiz-adv-x="1873" d="M212 1000h125l7 -92q76 58 167.5 85t194.5 27q101 0 175 -25t113 -91q68 54 162.5 85t197.5 31q74 0 134.5 -17t103 -59t66 -114t23.5 -182v-648h-136v648q0 73 -14 123.5t-41 81t-67.5 44t-92.5 13.5q-91 0 -165 -29t-137 -77q2 -16 3.5 -33.5t1.5 -36.5v-734h-136v746 q0 90 -55 127t-164 37q-94 0 -178.5 -35t-151.5 -90v-785h-136v1000z" />
<glyph unicode="n" horiz-adv-x="1221" d="M212 1000h125l9 -113q75 66 165 99.5t193 33.5q89 0 151.5 -21.5t101.5 -65.5t56.5 -111.5t17.5 -159.5v-662h-136v662q0 70 -14 117.5t-42 76.5t-68.5 41.5t-94.5 12.5q-97 0 -179 -34t-149 -88v-788h-136v1000z" />
<glyph unicode="o" horiz-adv-x="1213" d="M147 500q0 121 31.5 217t90.5 163.5t145 103.5t194 36t197 -36t152.5 -103.5t99 -163.5t35.5 -217q0 -122 -35.5 -218t-99 -163.5t-152.5 -103t-197 -35.5t-194 35.5t-145 103t-90.5 163.5t-31.5 218zM283 500q0 -106 23 -183t66 -127.5t102.5 -75t133.5 -24.5 q75 0 138.5 24.5t110 75t73 127.5t26.5 183t-26.5 183.5t-73 128t-110 74.5t-138.5 24q-74 0 -133.5 -24t-102.5 -74.5t-66 -128t-23 -183.5z" />
<glyph unicode="p" horiz-adv-x="1230" d="M212 1000h118l10 -79q30 24 61 42t68 31t82 19.5t103 6.5q98 0 178 -36.5t136.5 -104t87.5 -162.5t31 -213t-31 -214.5t-87.5 -165.5t-136.5 -106.5t-178 -37.5q-100 0 -172 22.5t-134 69.5v-472h-136v1400zM951 504q0 198 -86.5 302t-258.5 104q-73 0 -140 -22.5 t-118 -57.5v-660q51 -35 118 -57.5t140 -22.5q172 0 258.5 107t86.5 307z" />
<glyph unicode="q" horiz-adv-x="1217" d="M890 70q-30 -23 -60.5 -40t-66.5 -28t-79 -16.5t-98 -5.5q-99 0 -176.5 37.5t-131 106.5t-81 165.5t-27.5 214.5t27.5 213t81 162.5t131 104t176.5 36.5q55 0 99.5 -6.5t82 -19.5t70 -32.5t64.5 -44.5l19 83h105v-1400h-136v470zM306 504q0 -100 18.5 -177t57.5 -129.5 t101 -80t149 -27.5q73 0 140 22t118 56v663q-52 34 -118 56.5t-140 22.5q-87 0 -149 -26.5t-101 -77.5t-57.5 -127t-18.5 -175z" />
<glyph unicode="r" horiz-adv-x="772" d="M212 1000h125l7 -128q63 81 135.5 114.5t148.5 33.5q23 0 44.5 -1t44.5 -3l-18 -134q-27 5 -54.5 6.5t-62.5 1.5q-64 0 -124.5 -37.5t-109.5 -97.5v-755h-136v1000z" />
<glyph unicode="s" horiz-adv-x="997" d="M876 266q0 -59 -26 -111t-74 -91t-117 -61.5t-155 -22.5q-56 0 -110 5.5t-103 15.5t-91.5 23.5t-73.5 29.5l36 112q42 -16 78.5 -29.5t76.5 -24t87.5 -16.5t109.5 -6q53 0 95 12.5t71 35t44.5 52t15.5 64.5q0 40 -15 70t-47 53.5t-81 42t-117 36.5q-72 19 -133 48 t-106 65.5t-70 80t-25 90.5q0 67 24.5 119t71.5 88t115 54.5t155 18.5q114 0 197.5 -20.5t130.5 -41.5l-31 -108q-32 11 -62.5 22t-65.5 19.5t-77.5 13.5t-97.5 5q-116 0 -170 -41.5t-54 -112.5q0 -27 10 -54.5t35 -53t68 -47.5t109 -39q98 -25 168.5 -57t115.5 -69.5 t66.5 -80.5t21.5 -89z" />
<glyph unicode="t" horiz-adv-x="828" d="M96 1000h164v260l136 20v-280h314v-110h-314v-604q0 -56 9 -93.5t28.5 -60t49.5 -32.5t71 -10q25 0 51.5 2t51.5 5t47 6.5t39 6.5l10 -104q-37 -11 -92 -18.5t-107 -7.5q-72 0 -127 12.5t-92 46t-56 93t-19 154.5v604h-192z" />
<glyph unicode="u" horiz-adv-x="1221" d="M1031 0h-136v117q-78 -66 -172.5 -101.5t-196.5 -35.5q-76 0 -134.5 16.5t-98.5 57t-60.5 109.5t-20.5 175v662h136v-662q0 -69 11.5 -116.5t36.5 -76.5t63.5 -42t92.5 -13q93 0 180 34t163 88v788h136v-1000z" />
<glyph unicode="v" horiz-adv-x="1034" d="M64 1000h152l219 -594l86 -250l102 252l220 592h135l-402 -1000h-114z" />
<glyph unicode="w" horiz-adv-x="1563" d="M1334 1000h156l-294 -1000h-112l-294 756l-4 42l-4 -42l-298 -756h-111l-291 1000h156l198 -809l309 809h81l305 -806z" />
<glyph unicode="x" horiz-adv-x="1074" d="M256 0h-152l372 502l-374 498h158l280 -389l277 389h156l-370 -498v-1l1 -4l367 -497h-150l-281 396z" />
<glyph unicode="y" horiz-adv-x="1063" d="M595 -50q-35 -106 -68.5 -175.5t-73 -110.5t-90 -57.5t-119.5 -16.5q-27 0 -55.5 4t-48.5 12l16 106q4 0 15.5 -2t25 -4t26.5 -4t19 -2q40 0 68 10t52 37t48 76t55 127l-379 1050h140l302 -880l315 880h139l-389 -1050h2z" />
<glyph unicode="z" horiz-adv-x="1188" d="M223 1000h807v-102l-666 -788h705l-27 -110h-824l-2 116l640 774h-633v110z" />
<glyph unicode="{" horiz-adv-x="752" d="M104 644q43 0 82 10.5t68.5 38.5t46.5 76t17 123v220q0 109 13.5 190t46.5 135t88 80.5t138 26.5l13 -76q-88 0 -125.5 -86.5t-37.5 -269.5v-220q0 -70 -13 -121t-38.5 -87t-64 -58t-89.5 -33q51 -11 89.5 -33t64 -58t38.5 -87t13 -121v-272q0 -182 37.5 -269t125.5 -87 l-13 -76q-83 0 -138 26.5t-88 80.5t-46.5 135t-13.5 190v272q0 75 -17 123t-46.5 76t-68.5 38.5t-82 10.5v102z" />
<glyph unicode="|" horiz-adv-x="427" d="M152 1524h136v-1824h-136v1824z" />
<glyph unicode="}" horiz-adv-x="752" d="M649 490q-44 0 -80 -10.5t-61.5 -38.5t-39.5 -76t-14 -123v-220q0 -109 -17 -190t-53.5 -135t-94.5 -80.5t-139 -26.5l-14 76q88 0 135 87t47 269v220q0 70 11 121t34 87t58 58t84 33q-49 11 -84 33t-58 58t-34 87t-11 121v272q0 183 -47 269.5t-135 86.5l14 76 q81 0 139 -26.5t94.5 -80.5t53.5 -135t17 -190v-272q0 -75 14 -123t39.5 -76t61.5 -38.5t80 -10.5v-102z" />
<glyph unicode="~" horiz-adv-x="1444" d="M660 488q-59 42 -113.5 65t-111.5 23q-26 0 -54.5 -7.5t-55.5 -28.5t-50.5 -59t-38.5 -99l-118 28q14 79 50.5 132.5t83 85t98 45t96.5 13.5q54 0 96 -9.5t79.5 -26t72.5 -39.5t75 -51q59 -41 117 -63.5t106 -22.5q25 0 54 7t56.5 28t51.5 58.5t38 98.5l114 -28 q-15 -79 -50.5 -131.5t-81 -84t-95.5 -45t-93 -13.5q-54 0 -97.5 9t-81.5 25.5t-73 39t-74 50.5z" />
<glyph unicode="&#xa1;" horiz-adv-x="610" d="M240 0zM390.014 -359.917h-135.991v975.94h135.991v-975.94zM402.013 874.008h-161.989v125.992h161.989v-125.992z" />
<glyph unicode="&#xa2;" d="M136 502q0 108 27.5 198t80.5 156.5t130.5 107.5t177.5 52v176h136v-174q70 -5 122.5 -18t92.5 -34l-50 -98q-19 7 -39 14.5t-45.5 13.5t-58 10t-75.5 4q-81 0 -148 -23.5t-115 -73t-74 -127t-26 -184.5t25.5 -185t72.5 -128.5t113.5 -74.5t147.5 -24q89 0 153 16.5 t110 37.5l54 -98q-45 -29 -109.5 -45.5t-150.5 -19.5v-215h-136v221q-100 14 -177.5 56.5t-130.5 109t-80.5 155t-27.5 194.5z" />
<glyph unicode="&#xa3;" d="M76 730h184v264q0 105 25.5 178.5t76.5 119.5t127 67t178 21q31 0 64.5 -2.5t66 -6.5t62 -9.5t53.5 -11.5l-5 -102q-20 4 -47 8t-57.5 7t-62 5t-61.5 2q-75 0 -129 -14.5t-88.5 -47t-50.5 -85.5t-16 -129v-264h407v-110h-407v-242q0 -95 -30.5 -158t-88.5 -110h668v-110 h-895v110h5l-3 2q54 0 93 26t64.5 66.5t38 90.5t12.5 99v226h-212z" />
<glyph unicode="&#xa4;" horiz-adv-x="1502" d="M356 979q69 49 154.5 76t183.5 27q97 0 182.5 -27t154.5 -75l179 156l90 -80l-178 -157q63 -71 97.5 -161t34.5 -196q0 -108 -36 -199.5t-100 -162.5l182 -160l-90 -80l-184 160q-69 -47 -152.5 -72.5t-179.5 -25.5q-97 0 -180.5 25.5t-152.5 73.5l-185 -161l-88 80 l183 160q-64 71 -99.5 162.5t-35.5 199.5q0 106 34 196t97 161l-179 157l88 80zM694 112q87 0 167 29t141.5 84t98 135t36.5 182t-36.5 182t-98 135t-141.5 84t-167 29t-167 -29t-141 -84t-97.5 -135t-36.5 -182t36.5 -182t97.5 -135t141 -84t167 -29z" />
<glyph unicode="&#xa5;" d="M639 636l353 724h152l-379 -760h302v-110h-357v-158h357v-110h-357v-222h-136v222h-353v110h353v152l-3 6h-350v110h295l-381 760h152z" />
<glyph unicode="&#xa6;" horiz-adv-x="389" d="M118 528h122v-828h-122v828zM240 756h-122v768h122v-768z" />
<glyph unicode="&#xa7;" horiz-adv-x="1186" d="M1036 -110q0 -83 -30 -148t-84.5 -109.5t-132 -67.5t-172.5 -23q-62 0 -123 5.5t-115 14.5t-99.5 21.5t-75.5 26.5l33 108q40 -14 81.5 -26t87 -21t98.5 -14t118 -5q61 0 112 13.5t88 42t57.5 72t20.5 104.5q0 55 -30 99t-84 79t-129.5 63t-165.5 51q-81 21 -152 57.5 t-123.5 85.5t-82.5 108t-30 125q0 93 39.5 159t110.5 111q-43 45 -66.5 97t-23.5 115q0 84 30 149t87 110t139.5 68t187.5 23q63 0 121 -7.5t107.5 -18t88 -22.5t62.5 -22l-38 -108q-34 13 -69 25t-76 21.5t-89.5 15.5t-109.5 6q-155 0 -230 -57.5t-75 -172.5 q0 -46 19.5 -87.5t62.5 -78.5t111 -69t165 -57q210 -63 325 -164.5t115 -245.5q0 -85 -37 -149t-101 -110q38 -41 57.5 -88.5t19.5 -104.5zM587 652q-67 17 -126.5 40.5t-110.5 53.5q-54 -29 -82.5 -73t-28.5 -111q0 -41 18.5 -82t57.5 -79t99.5 -70.5t144.5 -54.5 q95 -26 170.5 -55t133.5 -64q45 30 71.5 74.5t26.5 104.5q0 55 -29 103t-79.5 87.5t-119 71t-146.5 54.5z" />
<glyph unicode="&#xa8;" horiz-adv-x="947" d="M140 1396h197v-170h-197v170zM623 1396h198v-170h-198v170z" />
<glyph unicode="&#xa9;" horiz-adv-x="1804" d="M527 670q0 91 25 164.5t73 125.5t117.5 80t158.5 28q91 0 152 -17.5t105 -44.5l-35 -98q-18 10 -36.5 19t-43 16t-57 11t-78.5 4q-56 0 -101 -16.5t-77 -51.5t-49.5 -89.5t-17.5 -130.5t17.5 -131t49.5 -91t77 -53t101 -17q46 0 83.5 4.5t68 12t56 17t48.5 20.5l36 -90 q-45 -30 -111.5 -52t-158.5 -22q-96 0 -171 29t-126.5 81.5t-78.5 126.5t-27 165zM903 1380q154 0 285.5 -49t228 -140t151 -220.5t54.5 -290.5t-54.5 -290.5t-151 -220.5t-228 -140t-285.5 -49t-286 49t-228.5 140t-151.5 220.5t-55 290.5t55 290.5t151.5 220.5t228.5 140 t286 49zM903 76q124 0 233.5 36.5t191 111.5t128.5 188.5t47 267.5t-47 267.5t-128.5 188.5t-191 111.5t-233.5 36.5q-125 0 -234.5 -36.5t-190.5 -111.5t-128 -188.5t-47 -267.5t47 -267.5t128 -188.5t190.5 -111.5t234.5 -36.5z" />
<glyph unicode="&#xaa;" horiz-adv-x="870" d="M581 1080v20q0 49 -10 82t-30 52.5t-49 27.5t-66 8q-32 0 -66 -3.5t-67.5 -9.5t-64.5 -14.5t-57 -18.5l-33 94q28 14 63.5 25.5t74 19.5t79.5 12.5t80 4.5q63 0 114.5 -13t89 -44.5t58 -86t20.5 -136.5v-432h-107l-17 79q-20 -16 -46 -32.5t-57 -30t-65.5 -22t-72.5 -8.5 q-70 0 -120 17t-82 46.5t-47 68t-15 82.5q0 43 23.5 82t67 67.5t105 45.5t137.5 17h160zM373 764q28 0 57 7t56 18t51 24.5t44 26.5v142h-144q-68 0 -109.5 -14t-64.5 -34t-31 -41.5t-8 -36.5q0 -23 11.5 -40.5t31.5 -29t47 -17t59 -5.5z" />
<glyph unicode="&#xab;" horiz-adv-x="1102" d="M108 42zM532 112l-76 -70l-348 392v84l348 400l76 -70l-301 -372zM986 112l-76 -70l-348 392v84l348 400l76 -70l-301 -372z" />
<glyph unicode="&#xac;" horiz-adv-x="1242" d="M112 610v110h1012v-350h-136v240h-876z" />
<glyph unicode="&#xad;" horiz-adv-x="1242" d="M112 610zM112 610v110h1014v-110h-1014z" />
<glyph unicode="&#xae;" horiz-adv-x="1804" d="M903 1380q150 0 277.5 -49t221.5 -140t147 -220.5t53 -290.5t-53 -290.5t-147 -220.5t-221.5 -140t-277.5 -49t-278.5 49t-222 140t-147 220.5t-53.5 290.5t53.5 290.5t147 220.5t222 140t278.5 49zM903 76q120 0 226 36.5t184.5 111.5t124.5 188.5t46 267.5t-46 267.5 t-124.5 188.5t-184.5 111.5t-226 36.5q-121 0 -227 -36.5t-184.5 -111.5t-124 -188.5t-45.5 -267.5t45.5 -267.5t124 -188.5t184.5 -111.5t227 -36.5zM623 1054h298q60 0 113 -13.5t92 -41.5t61.5 -71.5t22.5 -103.5q0 -34 -13 -63t-35.5 -52.5t-53 -41.5t-64.5 -30 l179 -305h-124l-165 284h-189v-284h-122v722zM745 956v-242h220q20 3 42 10t40.5 19.5t30.5 32t12 48.5q0 72 -48 102t-139 30h-158z" />
<glyph unicode="&#xaf;" horiz-adv-x="1024" d="M129 1402h772v-108h-772v108z" />
<glyph unicode="&#xb0;" horiz-adv-x="733" d="M367 1376q54 0 101 -18t82 -48.5t55.5 -72t20.5 -87.5q0 -47 -20.5 -88t-55.5 -72.5t-82 -49.5t-101 -18q-52 0 -98.5 18t-81 49.5t-55 72.5t-20.5 88q0 46 20.5 87.5t55 72t81 48.5t98.5 18zM367 1032q29 0 54 9.5t43.5 25.5t29 37.5t10.5 45.5q0 25 -10.5 46t-29 36.5 t-43.5 24.5t-54 9q-26 0 -50 -9t-43 -24.5t-30 -36.5t-11 -46q0 -24 11 -45.5t30 -37.5t43 -25.5t50 -9.5z" />
<glyph unicode="&#xb1;" horiz-adv-x="1065" d="M445 524h-327v110h327v316h136v-316h334v-110h-334v-318h-136v318zM100 0v110h876v-110h-876z" />
<glyph unicode="&#xb2;" horiz-adv-x="752" d="M641 760v-92h-521v34q0 67 13.5 117t42.5 89t75.5 70t112.5 60q44 16 72.5 32.5t45 34.5t22.5 37t6 40q0 50 -37 78t-107 28q-57 0 -103 -19.5t-93 -46.5l-39 80q19 12 43.5 25.5t54.5 25.5t64.5 19.5t72.5 7.5q122 0 188.5 -52.5t66.5 -149.5q0 -41 -18.5 -74t-49 -60 t-69.5 -49t-80 -39q-37 -20 -67 -39.5t-52 -42.5t-35.5 -51t-16.5 -63h408z" />
<glyph unicode="&#xb3;" horiz-adv-x="720" d="M604 1176q0 -113 -120 -155q142 -43 142 -165q0 -47 -20 -85t-59 -65.5t-97.5 -42.5t-135.5 -15q-65 0 -129.5 12.5t-118.5 41.5l30 74q53 -18 103.5 -30t110.5 -12q94 0 149 29t55 91q0 65 -52 94.5t-143 29.5h-153v86h153q81 0 127.5 27.5t46.5 86.5q0 31 -13.5 52.5 t-37.5 35t-58 20t-76 6.5q-58 0 -106 -12t-100 -32l-30 74q25 15 57.5 26t66.5 18t65.5 10.5t54.5 3.5q143 0 215.5 -54.5t72.5 -149.5z" />
<glyph unicode="&#xb4;" horiz-adv-x="591" d="M369 1426l157 -66l-268 -248l-110 40z" />
<glyph unicode="&#xb6;" horiz-adv-x="1066" d="M870 0h-136v520h-78q-129 0 -229 30t-169 85.5t-104.5 133.5t-35.5 173t35.5 172.5t104.5 132t169 84t229 29.5h214v-1360z" />
<glyph unicode="&#xb7;" horiz-adv-x="458" d="M162 156h182v-156h-182v156z" />
<glyph unicode="&#xb8;" horiz-adv-x="614" d="M500 12q17 -32 25.5 -65t8.5 -65q0 -50 -20.5 -95.5t-62 -79.5t-103.5 -52.5t-146 -14.5l-21 86q63 1 106.5 13t70.5 32.5t38.5 47.5t11.5 58q0 35 -12.5 72.5t-33.5 74.5z" />
<glyph unicode="&#xb9;" horiz-adv-x="508" d="M88 668v86h128v509l-132 -35v90l192 62h50v-626h124v-86h-362z" />
<glyph unicode="&#xba;" horiz-adv-x="909" d="M128 1018q0 84 23 151t66 114t104 72t137 25q77 0 140.5 -25t109 -72t70.5 -114t25 -151t-25 -151t-70.5 -114t-109 -72t-140.5 -25q-76 0 -137 25t-104 72t-66 114t-23 151zM264 1018q0 -66 14.5 -113.5t40 -78.5t61 -45.5t78.5 -14.5q45 0 83.5 14.5t66 45.5t43.5 78.5 t16 113.5q0 67 -16 114.5t-43.5 78t-66 45t-83.5 14.5q-43 0 -78.5 -14.5t-61 -45t-40 -78t-14.5 -114.5z" />
<glyph unicode="&#xbb;" horiz-adv-x="1103" d="M108 42zM108 848l80 70l344 -392v-84l-344 -400l-80 70l302 371zM564 848l80 70l344 -392v-84l-344 -400l-80 70l302 371z" />
<glyph unicode="&#xbc;" horiz-adv-x="1461" d="M123 0zM127 668v86h128v509l-132 -35v90l192 62h50v-626h124v-86h-362zM1148 1360h107l-938 -1360h-112zM1276 157v-156h-113v156h-427v66l422 490h118v-468h109v-88h-109zM1163 245v338l-290 -338h290z" />
<glyph unicode="&#xbd;" horiz-adv-x="1593" d="M123 0zM1419 91v-92h-521v34q0 67 13.5 117t42.5 89t75.5 70t112.5 60q44 16 72.5 32.5t45 34.5t22.5 37t6 40q0 50 -37 78t-107 28q-57 0 -103 -19.5t-93 -46.5l-39 80q19 12 43.5 25.5t54.5 25.5t64.5 19.5t72.5 7.5q122 0 188.5 -52.5t66.5 -149.5q0 -41 -18.5 -74 t-49 -60t-69.5 -49t-80 -39q-37 -20 -67 -39.5t-52 -42.5t-35.5 -51t-16.5 -63h408zM127 668v86h128v509l-132 -35v90l192 62h50v-626h124v-86h-362zM1144 1360h107l-938 -1360h-112z" />
<glyph unicode="&#xbe;" horiz-adv-x="1477" d="M66 0zM604 1176q0 -113 -120 -155q142 -43 142 -165q0 -47 -20 -85t-59 -65.5t-97.5 -42.5t-135.5 -15q-65 0 -129.5 12.5t-118.5 41.5l30 74q53 -18 103.5 -30t110.5 -12q94 0 149 29t55 91q0 65 -52 94.5t-143 29.5h-153v86h153q81 0 127.5 27.5t46.5 86.5 q0 31 -13.5 52.5t-37.5 35t-58 20t-76 6.5q-58 0 -106 -12t-100 -32l-30 74q25 15 57.5 26t66.5 18t65.5 10.5t54.5 3.5q143 0 215.5 -54.5t72.5 -149.5zM1192 1360h107l-938 -1360h-112zM1297 157v-156h-113v156h-427v66l422 490h118v-468h109v-88h-109zM1184 245v338 l-290 -338h290z" />
<glyph unicode="&#xbf;" horiz-adv-x="1153" d="M259 0zM781.024 644.021q0 -76.9951 -8.99902 -136.491q-9 -59.4971 -29.498 -107.493q-20.499 -47.998 -52.4971 -86.9951q-31.998 -38.998 -76.9951 -76.9951q-47.9971 -36.998 -87.9951 -68.9961q-39.9971 -31.998 -68.9961 -63.9961 q-28.998 -31.998 -44.9971 -66.9961t-15.999 -77.9951q0 -47.9971 15.999 -88.4941q15.999 -40.498 50.4971 -70.4961t89.4951 -46.4971q54.9961 -16.499 132.991 -16.499q54.9971 0 101.994 9.99902q46.9971 10 88.9941 26.499q41.998 16.499 79.9951 37.9971 q37.998 21.499 74.9961 45.498l53.9961 -93.9951q-29.998 -21.998 -72.9951 -45.9971q-42.998 -23.998 -95.4941 -43.9971q-52.4971 -19.999 -112.993 -32.998t-126.492 -12.999q-97.9941 0 -175.489 22.998q-77.4951 22.999 -130.992 64.9961 q-53.4971 41.998 -81.9951 102.494t-28.498 135.492q0 69.9951 30.498 127.492q30.498 57.4961 75.9951 105.493t98.4941 88.9941q52.9971 40.998 98.9941 77.9951q25.998 21.999 41.9971 48.4971q15.999 26.499 24.999 61.4971q8.99902 34.9971 11.999 79.4951 q3 44.4971 3 102.493h135.991zM799.023 842.01h-161.99v157.99h161.99v-157.99z" />
<glyph unicode="&#xc0;" horiz-adv-x="1375" d="M102 0zM982 422h-581l-157 -422h-142l513 1360h148l519 -1360h-142zM442 532h499l-249 667zM741 1506l-107 -34l-270 248l158 66z" />
<glyph unicode="&#xc1;" horiz-adv-x="1375" d="M102 0zM982 422h-581l-157 -422h-142l513 1360h148l519 -1360h-142zM442 532h499l-249 667zM835 1788l157 -66l-268 -248l-110 40z" />
<glyph unicode="&#xc2;" horiz-adv-x="1375" d="M102 0zM982 422h-581l-157 -422h-142l513 1360h148l519 -1360h-142zM442 532h499l-249 667zM532 1472h-188l306 232h104l305 -232h-190l-168 119z" />
<glyph unicode="&#xc3;" horiz-adv-x="1375" d="M102 0zM982 422h-581l-157 -422h-142l513 1360h148l519 -1360h-142zM442 532h499l-249 667zM830 1596q35 0 70 24.5t52 71.5l97 -66q-14 -36 -36.5 -64t-49 -48t-55 -32t-54.5 -16q-20 -4 -42 -4q-53 0 -96.5 23t-84.5 51q-31 23 -57.5 33.5t-46.5 10.5q-17 -1 -31 -4.5 t-28 -13.5t-28.5 -28t-31.5 -46l-96 60q12 35 34 63t49 48t56 33t55 18q18 3 34 3q55 0 100 -23.5t86 -51.5q29 -24 56.5 -32t47.5 -10z" />
<glyph unicode="&#xc4;" horiz-adv-x="1375" d="M102 0zM982 422h-581l-157 -422h-142l513 1360h148l519 -1360h-142zM442 532h499l-249 667zM358 1642h197v-170h-197v170zM841 1642h198v-170h-198v170z" />
<glyph unicode="&#xc5;" horiz-adv-x="1375" d="M102 0zM982 422h-581l-157 -422h-142l513 1360h148l519 -1360h-142zM442 532h499l-249 667zM695 1860q45 0 84.5 -15.5t69.5 -42t47.5 -61.5t17.5 -75q0 -41 -17.5 -75t-47.5 -59.5t-69.5 -39.5t-84.5 -14t-85.5 14t-71 39.5t-48.5 59.5t-18 75q0 40 18 75t48.5 61.5 t71 42t85.5 15.5zM695 1588q38 0 61 23t23 55q0 33 -23 58.5t-61 25.5q-17 0 -33 -7t-28.5 -18.5t-20 -27t-7.5 -31.5t7.5 -30t20 -24.5t28.5 -17t33 -6.5z" />
<glyph unicode="&#xc6;" horiz-adv-x="1966" d="M1073 370h-525l-240 -370l-170 2l292 448v30h19l574 880h824v-110h-638v-492h571v-110h-571v-538h638v-110h-774v370zM1073 480v699l-454 -699h454z" />
<glyph unicode="&#xc7;" d="M136 0zM136 682q0 158 43.5 287t124 220.5t195 141t257.5 49.5q106 0 181 -22t128 -49l-46 -95q-54 26 -124.5 41t-145.5 15q-105 0 -192.5 -34t-151 -105.5t-98.5 -183t-35 -265.5q0 -155 38 -266.5t106.5 -184t162.5 -107t205 -34.5q46 0 87.5 6.5t76.5 16t63.5 20.5 t50.5 21l39 -92q-52 -35 -136 -58.5t-196 -23.5q-145 0 -262 50.5t-199.5 142.5t-127 221.5t-44.5 287.5zM864 12q17 -32 25.5 -65t8.5 -65q0 -50 -20.5 -95.5t-62 -79.5t-103.5 -52.5t-146 -14.5l-21 86q63 1 106.5 13t70.5 32.5t38.5 47.5t11.5 58q0 35 -12.5 72.5 t-33.5 74.5z" />
<glyph unicode="&#xc8;" horiz-adv-x="1099" d="M216 0zM216 0v1360h774v-110h-638v-492h571v-110h-571v-538h638v-110h-774zM651 1504l-107 -34l-270 248l158 66z" />
<glyph unicode="&#xc9;" horiz-adv-x="1099" d="M216 0zM216 0v1360h774v-110h-638v-492h571v-110h-571v-538h638v-110h-774zM745 1786l157 -66l-268 -248l-110 40z" />
<glyph unicode="&#xca;" horiz-adv-x="1099" d="M216 0zM216 0v1360h774v-110h-638v-492h571v-110h-571v-538h638v-110h-774zM442 1470h-188l306 232h104l305 -232h-190l-168 119z" />
<glyph unicode="&#xcb;" horiz-adv-x="1099" d="M216 0zM216 0v1360h774v-110h-638v-492h571v-110h-571v-538h638v-110h-774zM268 1640h197v-170h-197v170zM751 1640h198v-170h-198v170z" />
<glyph unicode="&#xcc;" horiz-adv-x="856" d="M106 0zM156 0v110h211v1140h-211v110h548v-110h-201v-1140h201v-110h-548zM483 1504l-107 -34l-270 248l158 66z" />
<glyph unicode="&#xcd;" horiz-adv-x="856" d="M156 0zM156 0v110h211v1140h-211v110h548v-110h-201v-1140h201v-110h-548zM577 1786l157 -66l-268 -248l-110 40z" />
<glyph unicode="&#xce;" horiz-adv-x="856" d="M87 0zM156 0v110h211v1140h-211v110h548v-110h-201v-1140h201v-110h-548zM275 1470h-188l306 232h104l305 -232h-190l-168 119z" />
<glyph unicode="&#xcf;" horiz-adv-x="856" d="M101 0zM156 0v110h211v1140h-211v110h548v-110h-201v-1140h201v-110h-548zM101 1640h197v-170h-197v170zM584 1640h198v-170h-198v170z" />
<glyph unicode="&#xd0;" horiz-adv-x="1450" d="M274 666h-156v110h156v584h399q151 0 274 -48.5t209 -137t133 -213.5t47 -279t-47 -279.5t-133 -215t-209 -138.5t-274 -49h-399v666zM410 666v-556h243q119 0 219.5 33.5t173 103.5t113.5 178t41 257t-41 256.5t-113.5 176.5t-173 102t-219.5 33h-243v-474h311v-110 h-311z" />
<glyph unicode="&#xd1;" horiz-adv-x="1482" d="M216 0zM216 1360h136l799 -1145v1145h136v-1360h-136l-799 1126v-1126h-136v1360zM878 1594q35 0 70 24.5t52 71.5l97 -66q-14 -36 -36.5 -64t-49 -48t-55 -32t-54.5 -16q-20 -4 -42 -4q-53 0 -96.5 23t-84.5 51q-31 23 -57.5 33.5t-46.5 10.5q-17 -1 -31 -4.5t-28 -13.5 t-28.5 -28t-31.5 -46l-96 60q12 35 34 63t49 48t56 33t55 18q18 3 34 3q55 0 100 -23.5t86 -51.5q29 -24 56.5 -32t47.5 -10z" />
<glyph unicode="&#xd2;" horiz-adv-x="1438" d="M135 0zM135 680q0 161 42 290.5t117.5 220.5t181.5 140t234 49q127 0 236.5 -49t190 -140t126.5 -220.5t46 -290.5q0 -162 -46 -291.5t-126.5 -220.5t-190 -139.5t-236.5 -48.5q-128 0 -234 48.5t-181.5 139.5t-117.5 220.5t-42 291.5zM271 680q0 -150 33 -261t92 -184 t139 -109t175 -36q96 0 180.5 36t147.5 109t99 184t36 261t-36 261t-99 184t-147.5 109t-180.5 36q-95 0 -175 -36t-139 -109t-92 -184t-33 -261zM774 1522l-107 -34l-270 248l158 66z" />
<glyph unicode="&#xd3;" horiz-adv-x="1438" d="M135 0zM135 680q0 161 42 290.5t117.5 220.5t181.5 140t234 49q127 0 236.5 -49t190 -140t126.5 -220.5t46 -290.5q0 -162 -46 -291.5t-126.5 -220.5t-190 -139.5t-236.5 -48.5q-128 0 -234 48.5t-181.5 139.5t-117.5 220.5t-42 291.5zM271 680q0 -150 33 -261t92 -184 t139 -109t175 -36q96 0 180.5 36t147.5 109t99 184t36 261t-36 261t-99 184t-147.5 109t-180.5 36q-95 0 -175 -36t-139 -109t-92 -184t-33 -261zM868 1804l157 -66l-268 -248l-110 40z" />
<glyph unicode="&#xd4;" horiz-adv-x="1438" d="M135 0zM135 680q0 161 42 290.5t117.5 220.5t181.5 140t234 49q127 0 236.5 -49t190 -140t126.5 -220.5t46 -290.5q0 -162 -46 -291.5t-126.5 -220.5t-190 -139.5t-236.5 -48.5q-128 0 -234 48.5t-181.5 139.5t-117.5 220.5t-42 291.5zM271 680q0 -150 33 -261t92 -184 t139 -109t175 -36q96 0 180.5 36t147.5 109t99 184t36 261t-36 261t-99 184t-147.5 109t-180.5 36q-95 0 -175 -36t-139 -109t-92 -184t-33 -261zM565 1488h-188l306 232h104l305 -232h-190l-168 119z" />
<glyph unicode="&#xd5;" horiz-adv-x="1438" d="M135 0zM135 680q0 161 42 290.5t117.5 220.5t181.5 140t234 49q127 0 236.5 -49t190 -140t126.5 -220.5t46 -290.5q0 -162 -46 -291.5t-126.5 -220.5t-190 -139.5t-236.5 -48.5q-128 0 -234 48.5t-181.5 139.5t-117.5 220.5t-42 291.5zM271 680q0 -150 33 -261t92 -184 t139 -109t175 -36q96 0 180.5 36t147.5 109t99 184t36 261t-36 261t-99 184t-147.5 109t-180.5 36q-95 0 -175 -36t-139 -109t-92 -184t-33 -261zM863 1612q35 0 70 24.5t52 71.5l97 -66q-14 -36 -36.5 -64t-49 -48t-55 -32t-54.5 -16q-20 -4 -42 -4q-53 0 -96.5 23 t-84.5 51q-31 23 -57.5 33.5t-46.5 10.5q-17 -1 -31 -4.5t-28 -13.5t-28.5 -28t-31.5 -46l-96 60q12 35 34 63t49 48t56 33t55 18q18 3 34 3q55 0 100 -23.5t86 -51.5q29 -24 56.5 -32t47.5 -10z" />
<glyph unicode="&#xd6;" horiz-adv-x="1438" d="M135 0zM135 680q0 161 42 290.5t117.5 220.5t181.5 140t234 49q127 0 236.5 -49t190 -140t126.5 -220.5t46 -290.5q0 -162 -46 -291.5t-126.5 -220.5t-190 -139.5t-236.5 -48.5q-128 0 -234 48.5t-181.5 139.5t-117.5 220.5t-42 291.5zM271 680q0 -150 33 -261t92 -184 t139 -109t175 -36q96 0 180.5 36t147.5 109t99 184t36 261t-36 261t-99 184t-147.5 109t-180.5 36q-95 0 -175 -36t-139 -109t-92 -184t-33 -261zM391 1658h197v-170h-197v170zM874 1658h198v-170h-198v170z" />
<glyph unicode="&#xd7;" horiz-adv-x="1067" d="M210 964l328 -292l329 292l89 -84l-326 -290l326 -290l-89 -84l-329 292l-328 -292l-94 82l330 293l-328 293z" />
<glyph unicode="&#xd8;" horiz-adv-x="1288" d="M61 680q0 161 42 290.5t117.5 220.5t181.5 140t234 49q115 0 215 -40t178 -115l111 135h132l-174 -213q65 -89 101 -206.5t36 -260.5q0 -162 -46 -291.5t-126.5 -220.5t-190 -139.5t-236.5 -48.5q-113 0 -207.5 37t-168.5 108l-104 -127h-134l170 207q-63 89 -97 208.5 t-34 266.5zM197 680q0 -118 20.5 -210.5t57.5 -163.5l680 829q-63 69 -144 102t-175 33q-95 0 -175 -36t-139 -109t-92 -184t-33 -261zM1099 680q0 115 -21.5 207t-60.5 161l-681 -830q58 -65 134 -96.5t166 -31.5q96 0 180.5 36t147.5 109t99 184t36 261z" />
<glyph unicode="&#xd9;" horiz-adv-x="1457" d="M216 0zM1123 1360h136v-960q0 -101 -38.5 -179t-108.5 -131.5t-167 -81.5t-215 -28q-117 0 -212 27.5t-162 81t-103.5 131t-36.5 178.5v962h136v-962q0 -74 28 -131t78 -96.5t119.5 -60t152.5 -20.5q84 0 156 20.5t124.5 60t82.5 96.5t30 131v962zM783 1504l-107 -34 l-270 248l158 66z" />
<glyph unicode="&#xda;" horiz-adv-x="1457" d="M216 0zM1123 1360h136v-960q0 -101 -38.5 -179t-108.5 -131.5t-167 -81.5t-215 -28q-117 0 -212 27.5t-162 81t-103.5 131t-36.5 178.5v962h136v-962q0 -74 28 -131t78 -96.5t119.5 -60t152.5 -20.5q84 0 156 20.5t124.5 60t82.5 96.5t30 131v962zM877 1786l157 -66 l-268 -248l-110 40z" />
<glyph unicode="&#xdb;" horiz-adv-x="1457" d="M216 0zM1123 1360h136v-960q0 -101 -38.5 -179t-108.5 -131.5t-167 -81.5t-215 -28q-117 0 -212 27.5t-162 81t-103.5 131t-36.5 178.5v962h136v-962q0 -74 28 -131t78 -96.5t119.5 -60t152.5 -20.5q84 0 156 20.5t124.5 60t82.5 96.5t30 131v962zM574 1470h-188l306 232 h104l305 -232h-190l-168 119z" />
<glyph unicode="&#xdc;" horiz-adv-x="1457" d="M216 0zM1123 1360h136v-960q0 -101 -38.5 -179t-108.5 -131.5t-167 -81.5t-215 -28q-117 0 -212 27.5t-162 81t-103.5 131t-36.5 178.5v962h136v-962q0 -74 28 -131t78 -96.5t119.5 -60t152.5 -20.5q84 0 156 20.5t124.5 60t82.5 96.5t30 131v962zM400 1640h197v-170 h-197v170zM883 1640h198v-170h-198v170z" />
<glyph unicode="&#xdd;" horiz-adv-x="1184" d="M90 0zM594 636l353 724h152l-434 -870v-490h-136v484l-439 876h152zM756 1786l157 -66l-268 -248l-110 40z" />
<glyph unicode="&#xde;" horiz-adv-x="1145" d="M132 1360h136v-324h308q111 0 196.5 -25.5t144 -72t89 -113.5t30.5 -149q0 -83 -30.5 -150t-89 -114.5t-144 -73.5t-196.5 -26h-308v-312h-136v1360zM268 926v-504h286q77 0 140.5 15t109.5 46.5t71 79.5t25 113t-25 112.5t-71 78t-109.5 45t-140.5 14.5h-286z" />
<glyph unicode="&#xdf;" horiz-adv-x="1236" d="M142 -192v1170q0 91 28.5 168.5t84 134.5t137 89t186.5 32q190 0 283 -69t93 -199q0 -34 -6.5 -60.5t-17 -48.5t-24 -40.5t-28.5 -34.5q-30 -42 -48 -85.5t-18 -94.5q0 -53 34 -92.5t96 -79.5q34 -24 67 -51t59 -60t42 -74.5t16 -94.5q0 -92 -37.5 -158.5t-99 -109 t-140.5 -62.5t-163 -20q-42 0 -82 3.5t-75.5 8t-64 10t-47.5 10.5l29 112q38 -11 96.5 -22.5t145.5 -11.5q59 0 113.5 13.5t96.5 41.5t67 71.5t25 103.5q0 31 -15 57.5t-37 50t-47.5 44t-45.5 38.5q-36 27 -67 54.5t-53.5 59.5t-35.5 70.5t-13 87.5q0 71 17.5 129t62.5 118 q7 10 18 24.5t20.5 30.5t16.5 32.5t7 31.5q0 34 -15.5 62.5t-47 49.5t-78.5 32.5t-110 11.5q-68 0 -121.5 -24t-90.5 -66t-57 -99.5t-20 -124.5v-1170h-136z" />
<glyph unicode="&#xe0;" horiz-adv-x="1136" d="M133 0zM811 584v38q0 81 -16.5 136t-49 89t-81.5 48.5t-114 14.5q-41 0 -82.5 -5.5t-81 -15.5t-75 -22.5t-63.5 -26.5l-38 98q33 19 75 34t88 25.5t94.5 16.5t94.5 6q87 0 158.5 -18t121.5 -63t77.5 -122t27.5 -195v-622h-98l-23 113q-19 -15 -54.5 -37.5t-85 -43.5 t-112 -36.5t-135.5 -15.5q-79 0 -137 23.5t-95.5 64t-55.5 94.5t-18 114q0 61 30 117t84 98.5t129.5 67.5t166.5 25h268zM469 90q68 0 126 16.5t102 38.5t73.5 43.5t40.5 31.5v264h-245q-87 0 -144.5 -21.5t-91 -54.5t-47.5 -73t-14 -77q0 -40 15.5 -71t42.5 -52.5t63.5 -33 t78.5 -11.5zM635 1184l-107 -34l-270 248l158 66z" />
<glyph unicode="&#xe1;" horiz-adv-x="1136" d="M133 0zM811 584v38q0 81 -16.5 136t-49 89t-81.5 48.5t-114 14.5q-41 0 -82.5 -5.5t-81 -15.5t-75 -22.5t-63.5 -26.5l-38 98q33 19 75 34t88 25.5t94.5 16.5t94.5 6q87 0 158.5 -18t121.5 -63t77.5 -122t27.5 -195v-622h-98l-23 113q-19 -15 -54.5 -37.5t-85 -43.5 t-112 -36.5t-135.5 -15.5q-79 0 -137 23.5t-95.5 64t-55.5 94.5t-18 114q0 61 30 117t84 98.5t129.5 67.5t166.5 25h268zM469 90q68 0 126 16.5t102 38.5t73.5 43.5t40.5 31.5v264h-245q-87 0 -144.5 -21.5t-91 -54.5t-47.5 -73t-14 -77q0 -40 15.5 -71t42.5 -52.5t63.5 -33 t78.5 -11.5zM729 1466l157 -66l-268 -248l-110 40z" />
<glyph unicode="&#xe2;" horiz-adv-x="1136" d="M133 0zM811 584v38q0 81 -16.5 136t-49 89t-81.5 48.5t-114 14.5q-41 0 -82.5 -5.5t-81 -15.5t-75 -22.5t-63.5 -26.5l-38 98q33 19 75 34t88 25.5t94.5 16.5t94.5 6q87 0 158.5 -18t121.5 -63t77.5 -122t27.5 -195v-622h-98l-23 113q-19 -15 -54.5 -37.5t-85 -43.5 t-112 -36.5t-135.5 -15.5q-79 0 -137 23.5t-95.5 64t-55.5 94.5t-18 114q0 61 30 117t84 98.5t129.5 67.5t166.5 25h268zM469 90q68 0 126 16.5t102 38.5t73.5 43.5t40.5 31.5v264h-245q-87 0 -144.5 -21.5t-91 -54.5t-47.5 -73t-14 -77q0 -40 15.5 -71t42.5 -52.5t63.5 -33 t78.5 -11.5zM426 1150h-188l306 232h104l305 -232h-190l-168 119z" />
<glyph unicode="&#xe3;" horiz-adv-x="1136" d="M133 0zM811 584v38q0 81 -16.5 136t-49 89t-81.5 48.5t-114 14.5q-41 0 -82.5 -5.5t-81 -15.5t-75 -22.5t-63.5 -26.5l-38 98q33 19 75 34t88 25.5t94.5 16.5t94.5 6q87 0 158.5 -18t121.5 -63t77.5 -122t27.5 -195v-622h-98l-23 113q-19 -15 -54.5 -37.5t-85 -43.5 t-112 -36.5t-135.5 -15.5q-79 0 -137 23.5t-95.5 64t-55.5 94.5t-18 114q0 61 30 117t84 98.5t129.5 67.5t166.5 25h268zM469 90q68 0 126 16.5t102 38.5t73.5 43.5t40.5 31.5v264h-245q-87 0 -144.5 -21.5t-91 -54.5t-47.5 -73t-14 -77q0 -40 15.5 -71t42.5 -52.5t63.5 -33 t78.5 -11.5zM724 1274q35 0 70 24.5t52 71.5l97 -66q-14 -36 -36.5 -64t-49 -48t-55 -32t-54.5 -16q-20 -4 -42 -4q-53 0 -96.5 23t-84.5 51q-31 23 -57.5 33.5t-46.5 10.5q-17 -1 -31 -4.5t-28 -13.5t-28.5 -28t-31.5 -46l-96 60q12 35 34 63t49 48t56 33t55 18q18 3 34 3 q55 0 100 -23.5t86 -51.5q29 -24 56.5 -32t47.5 -10z" />
<glyph unicode="&#xe4;" horiz-adv-x="1136" d="M133 0zM811 584v38q0 81 -16.5 136t-49 89t-81.5 48.5t-114 14.5q-41 0 -82.5 -5.5t-81 -15.5t-75 -22.5t-63.5 -26.5l-38 98q33 19 75 34t88 25.5t94.5 16.5t94.5 6q87 0 158.5 -18t121.5 -63t77.5 -122t27.5 -195v-622h-98l-23 113q-19 -15 -54.5 -37.5t-85 -43.5 t-112 -36.5t-135.5 -15.5q-79 0 -137 23.5t-95.5 64t-55.5 94.5t-18 114q0 61 30 117t84 98.5t129.5 67.5t166.5 25h268zM469 90q68 0 126 16.5t102 38.5t73.5 43.5t40.5 31.5v264h-245q-87 0 -144.5 -21.5t-91 -54.5t-47.5 -73t-14 -77q0 -40 15.5 -71t42.5 -52.5t63.5 -33 t78.5 -11.5zM252 1321h197v-170h-197v170zM735 1321h198v-170h-198v170z" />
<glyph unicode="&#xe5;" horiz-adv-x="1136" d="M133 0zM811 584v38q0 81 -16.5 136t-49 89t-81.5 48.5t-114 14.5q-41 0 -82.5 -5.5t-81 -15.5t-75 -22.5t-63.5 -26.5l-38 98q33 19 75 34t88 25.5t94.5 16.5t94.5 6q87 0 158.5 -18t121.5 -63t77.5 -122t27.5 -195v-622h-98l-23 113q-19 -15 -54.5 -37.5t-85 -43.5 t-112 -36.5t-135.5 -15.5q-79 0 -137 23.5t-95.5 64t-55.5 94.5t-18 114q0 61 30 117t84 98.5t129.5 67.5t166.5 25h268zM469 90q68 0 126 16.5t102 38.5t73.5 43.5t40.5 31.5v264h-245q-87 0 -144.5 -21.5t-91 -54.5t-47.5 -73t-14 -77q0 -40 15.5 -71t42.5 -52.5t63.5 -33 t78.5 -11.5zM589 1539q45 0 84.5 -15.5t69.5 -42t47.5 -61.5t17.5 -75q0 -41 -17.5 -75t-47.5 -59.5t-69.5 -39.5t-84.5 -14t-85.5 14t-71 39.5t-48.5 59.5t-18 75q0 40 18 75t48.5 61.5t71 42t85.5 15.5zM589 1267q38 0 61 23t23 55q0 33 -23 58.5t-61 25.5q-17 0 -33 -7 t-28.5 -18.5t-20 -27t-7.5 -31.5t7.5 -30t20 -24.5t28.5 -17t33 -6.5z" />
<glyph unicode="&#xe6;" horiz-adv-x="1804" d="M818 552v70q0 81 -16.5 134t-49 84.5t-81.5 44.5t-114 13q-41 0 -85 -6.5t-86 -16.5t-79.5 -22.5t-63.5 -24.5l-48 102q36 18 80 34.5t93 28.5t100 19.5t102 7.5q64 0 118 -8.5t97.5 -28t76 -51.5t53.5 -80q58 82 147 125t209 43q88 0 161 -26t125.5 -76.5t81.5 -124 t29 -167.5v-110h-712v-24q0 -95 21.5 -170t65 -126.5t109 -78.5t152.5 -27q58 0 103.5 6.5t82 16t64.5 20.5t50 21l41 -102q-61 -33 -148 -52.5t-187 -19.5q-128 0 -222 37t-156 109q-31 -18 -73.5 -43.5t-101 -48t-135 -38.5t-175.5 -16q-80 0 -138 22t-96 61t-56 91 t-18 112q0 61 28 113t78 90.5t119 60.5t152 22h302zM479 90q61 0 113.5 9t95.5 22.5t75.5 28.5t54.5 28v276h-278q-78 0 -129 -15.5t-81.5 -43t-42.5 -65t-12 -82.5q0 -40 15.5 -69.5t43 -49t64.5 -29.5t81 -10zM1278 910q-63 0 -116 -14t-93 -47t-66.5 -87.5t-38.5 -135.5 h568q0 76 -21 129.5t-56.5 88t-81 50.5t-95.5 16z" />
<glyph unicode="&#xe7;" horiz-adv-x="1004" d="M148 0zM148 502q0 118 32.5 213.5t95 163t153.5 104.5t207 37q96 0 163.5 -14t115.5 -40l-50 -98q-19 7 -39 14.5t-45.5 13.5t-58 10t-75.5 4q-81 0 -148 -23.5t-115 -73t-74 -127t-26 -184.5t25.5 -185t72.5 -128.5t113.5 -74.5t147.5 -24q89 0 153 16.5t110 37.5 l54 -98q-49 -32 -123.5 -49t-175.5 -17q-122 0 -217.5 37.5t-161 106t-100 164.5t-34.5 214zM734 12q17 -32 25.5 -65t8.5 -65q0 -50 -20.5 -95.5t-62 -79.5t-103.5 -52.5t-146 -14.5l-21 86q63 1 106.5 13t70.5 32.5t38.5 47.5t11.5 58q0 35 -12.5 72.5t-33.5 74.5z" />
<glyph unicode="&#xe8;" horiz-adv-x="1145" d="M146 0zM282 516v-24q0 -95 21.5 -170t65 -126.5t109 -78.5t152.5 -27q58 0 103.5 6.5t82 16t64.5 20.5t50 21l41 -102q-61 -33 -148 -52.5t-187 -19.5q-122 0 -213.5 34.5t-153 100t-92.5 160.5t-31 217q0 125 30 223.5t88 166t141.5 103t191.5 35.5q88 0 161 -26 t125.5 -76.5t81.5 -124t29 -167.5v-110h-712zM604 910q-63 0 -116 -14t-93 -47t-66.5 -87.5t-38.5 -135.5h568q0 76 -21 129.5t-56.5 88t-81 50.5t-95.5 16zM658 1184l-107 -34l-270 248l158 66z" />
<glyph unicode="&#xe9;" horiz-adv-x="1145" d="M146 0zM282 516v-24q0 -95 21.5 -170t65 -126.5t109 -78.5t152.5 -27q58 0 103.5 6.5t82 16t64.5 20.5t50 21l41 -102q-61 -33 -148 -52.5t-187 -19.5q-122 0 -213.5 34.5t-153 100t-92.5 160.5t-31 217q0 125 30 223.5t88 166t141.5 103t191.5 35.5q88 0 161 -26 t125.5 -76.5t81.5 -124t29 -167.5v-110h-712zM604 910q-63 0 -116 -14t-93 -47t-66.5 -87.5t-38.5 -135.5h568q0 76 -21 129.5t-56.5 88t-81 50.5t-95.5 16zM752 1466l157 -66l-268 -248l-110 40z" />
<glyph unicode="&#xea;" horiz-adv-x="1145" d="M146 0zM282 516v-24q0 -95 21.5 -170t65 -126.5t109 -78.5t152.5 -27q58 0 103.5 6.5t82 16t64.5 20.5t50 21l41 -102q-61 -33 -148 -52.5t-187 -19.5q-122 0 -213.5 34.5t-153 100t-92.5 160.5t-31 217q0 125 30 223.5t88 166t141.5 103t191.5 35.5q88 0 161 -26 t125.5 -76.5t81.5 -124t29 -167.5v-110h-712zM604 910q-63 0 -116 -14t-93 -47t-66.5 -87.5t-38.5 -135.5h568q0 76 -21 129.5t-56.5 88t-81 50.5t-95.5 16zM449 1150h-188l306 232h104l305 -232h-190l-168 119z" />
<glyph unicode="&#xeb;" horiz-adv-x="1145" d="M146 0zM282 516v-24q0 -95 21.5 -170t65 -126.5t109 -78.5t152.5 -27q58 0 103.5 6.5t82 16t64.5 20.5t50 21l41 -102q-61 -33 -148 -52.5t-187 -19.5q-122 0 -213.5 34.5t-153 100t-92.5 160.5t-31 217q0 125 30 223.5t88 166t141.5 103t191.5 35.5q88 0 161 -26 t125.5 -76.5t81.5 -124t29 -167.5v-110h-712zM604 910q-63 0 -116 -14t-93 -47t-66.5 -87.5t-38.5 -135.5h568q0 76 -21 129.5t-56.5 88t-81 50.5t-95.5 16zM275 1321h197v-170h-197v170zM758 1321h198v-170h-198v170z" />
<glyph unicode="&#xec;" horiz-adv-x="377" d="M0 0zM132 1000h136v-1000h-136v1000zM257 1171l-107 -34l-270 248l158 66z" />
<glyph unicode="&#xed;" horiz-adv-x="377" d="M130 0zM132 1000h136v-1000h-136v1000zM351 1453l157 -66l-268 -248l-110 40z" />
<glyph unicode="&#xee;" horiz-adv-x="377" d="M0 0zM132 1000h136v-1000h-136v1000zM48 1138h-188l306 232h104l305 -232h-190l-168 119z" />
<glyph unicode="&#xef;" horiz-adv-x="377" d="M0 0zM132 1000h136v-1000h-136v1000zM-126 1308h197v-170h-197v170zM357 1308h198v-170h-198v170z" />
<glyph unicode="&#xf0;" horiz-adv-x="1257" d="M537 1088l218 96q-60 44 -132.5 65t-155.5 21l13 110q118 0 217 -37t177 -106l230 101l50 -88l-206 -92q79 -103 121.5 -245t42.5 -317q0 -139 -31.5 -252t-93.5 -193t-153 -123.5t-211 -43.5q-113 0 -200.5 38.5t-146.5 100.5t-89.5 140.5t-30.5 158.5q0 106 27 191.5 t82 145t138 91.5t194 32q51 0 104.5 -11t103 -31t92.5 -49t73 -66q-12 126 -46.5 221t-88.5 161l-244 -109zM602 94q87 0 156 28.5t117 88.5t74 153t27 223q-39 54 -86.5 90t-99 57t-105 29.5t-103.5 8.5q-78 0 -133.5 -29t-90 -78t-50.5 -114t-16 -137q0 -62 20 -120 t59 -102.5t97 -71t134 -26.5z" />
<glyph unicode="&#xf1;" horiz-adv-x="1221" d="M212 0zM212 1000h125l9 -113q75 66 165 99.5t193 33.5q89 0 151.5 -21.5t101.5 -65.5t56.5 -111.5t17.5 -159.5v-662h-136v662q0 70 -14 117.5t-42 76.5t-68.5 41.5t-94.5 12.5q-97 0 -179 -34t-149 -88v-788h-136v1000zM761 1274q35 0 70 24.5t52 71.5l97 -66 q-14 -36 -36.5 -64t-49 -48t-55 -32t-54.5 -16q-20 -4 -42 -4q-53 0 -96.5 23t-84.5 51q-31 23 -57.5 33.5t-46.5 10.5q-17 -1 -31 -4.5t-28 -13.5t-28.5 -28t-31.5 -46l-96 60q12 35 34 63t49 48t56 33t55 18q18 3 34 3q55 0 100 -23.5t86 -51.5q29 -24 56.5 -32t47.5 -10z " />
<glyph unicode="&#xf2;" horiz-adv-x="1213" d="M147 0zM147 500q0 121 31.5 217t90.5 163.5t145 103.5t194 36t197 -36t152.5 -103.5t99 -163.5t35.5 -217q0 -122 -35.5 -218t-99 -163.5t-152.5 -103t-197 -35.5t-194 35.5t-145 103t-90.5 163.5t-31.5 218zM283 500q0 -106 23 -183t66 -127.5t102.5 -75t133.5 -24.5 q75 0 138.5 24.5t110 75t73 127.5t26.5 183t-26.5 183.5t-73 128t-110 74.5t-138.5 24q-74 0 -133.5 -24t-102.5 -74.5t-66 -128t-23 -183.5zM664 1182l-107 -34l-270 248l158 66z" />
<glyph unicode="&#xf3;" horiz-adv-x="1213" d="M147 0zM147 500q0 121 31.5 217t90.5 163.5t145 103.5t194 36t197 -36t152.5 -103.5t99 -163.5t35.5 -217q0 -122 -35.5 -218t-99 -163.5t-152.5 -103t-197 -35.5t-194 35.5t-145 103t-90.5 163.5t-31.5 218zM283 500q0 -106 23 -183t66 -127.5t102.5 -75t133.5 -24.5 q75 0 138.5 24.5t110 75t73 127.5t26.5 183t-26.5 183.5t-73 128t-110 74.5t-138.5 24q-74 0 -133.5 -24t-102.5 -74.5t-66 -128t-23 -183.5zM758 1464l157 -66l-268 -248l-110 40z" />
<glyph unicode="&#xf4;" horiz-adv-x="1213" d="M147 0zM147 500q0 121 31.5 217t90.5 163.5t145 103.5t194 36t197 -36t152.5 -103.5t99 -163.5t35.5 -217q0 -122 -35.5 -218t-99 -163.5t-152.5 -103t-197 -35.5t-194 35.5t-145 103t-90.5 163.5t-31.5 218zM283 500q0 -106 23 -183t66 -127.5t102.5 -75t133.5 -24.5 q75 0 138.5 24.5t110 75t73 127.5t26.5 183t-26.5 183.5t-73 128t-110 74.5t-138.5 24q-74 0 -133.5 -24t-102.5 -74.5t-66 -128t-23 -183.5zM455 1148h-188l306 232h104l305 -232h-190l-168 119z" />
<glyph unicode="&#xf5;" horiz-adv-x="1213" d="M147 0zM147 500q0 121 31.5 217t90.5 163.5t145 103.5t194 36t197 -36t152.5 -103.5t99 -163.5t35.5 -217q0 -122 -35.5 -218t-99 -163.5t-152.5 -103t-197 -35.5t-194 35.5t-145 103t-90.5 163.5t-31.5 218zM283 500q0 -106 23 -183t66 -127.5t102.5 -75t133.5 -24.5 q75 0 138.5 24.5t110 75t73 127.5t26.5 183t-26.5 183.5t-73 128t-110 74.5t-138.5 24q-74 0 -133.5 -24t-102.5 -74.5t-66 -128t-23 -183.5zM753 1272q35 0 70 24.5t52 71.5l97 -66q-14 -36 -36.5 -64t-49 -48t-55 -32t-54.5 -16q-20 -4 -42 -4q-53 0 -96.5 23t-84.5 51 q-31 23 -57.5 33.5t-46.5 10.5q-17 -1 -31 -4.5t-28 -13.5t-28.5 -28t-31.5 -46l-96 60q12 35 34 63t49 48t56 33t55 18q18 3 34 3q55 0 100 -23.5t86 -51.5q29 -24 56.5 -32t47.5 -10z" />
<glyph unicode="&#xf6;" horiz-adv-x="1213" d="M147 0zM147 500q0 121 31.5 217t90.5 163.5t145 103.5t194 36t197 -36t152.5 -103.5t99 -163.5t35.5 -217q0 -122 -35.5 -218t-99 -163.5t-152.5 -103t-197 -35.5t-194 35.5t-145 103t-90.5 163.5t-31.5 218zM283 500q0 -106 23 -183t66 -127.5t102.5 -75t133.5 -24.5 q75 0 138.5 24.5t110 75t73 127.5t26.5 183t-26.5 183.5t-73 128t-110 74.5t-138.5 24q-74 0 -133.5 -24t-102.5 -74.5t-66 -128t-23 -183.5zM281 1319h197v-170h-197v170zM764 1319h198v-170h-198v170z" />
<glyph unicode="&#xf7;" horiz-adv-x="1065" d="M112 552v110h844v-110h-844zM448 966h165v-166h-165v166zM448 378h165v-166h-165v166z" />
<glyph unicode="&#xf8;" horiz-adv-x="1203" d="M116 500q0 121 31.5 217t90.5 163.5t145 103.5t194 36q91 0 169 -26t139 -75l71 81h145l-140 -161q48 -65 74 -150t26 -189q0 -122 -35.5 -218t-99 -163.5t-152.5 -103t-197 -35.5q-87 0 -158.5 22.5t-127.5 66.5l-60 -69h-143l127 146q-48 66 -73.5 155t-25.5 199z M252 500q0 -158 50 -253l506 582q-46 42 -104.5 61.5t-126.5 19.5q-74 0 -133.5 -24t-102.5 -74.5t-66 -128t-23 -183.5zM925 500q0 75 -13 134t-37 106l-505 -580q80 -70 207 -70q75 0 138.5 24.5t110 75t73 127.5t26.5 183z" />
<glyph unicode="&#xf9;" horiz-adv-x="1221" d="M212 0zM1031 0h-136v117q-78 -66 -172.5 -101.5t-196.5 -35.5q-76 0 -134.5 16.5t-98.5 57t-60.5 109.5t-20.5 175v662h136v-662q0 -69 11.5 -116.5t36.5 -76.5t63.5 -42t92.5 -13q93 0 180 34t163 88v788h136v-1000zM672 1164l-107 -34l-270 248l158 66z" />
<glyph unicode="&#xfa;" horiz-adv-x="1221" d="M212 0zM1031 0h-136v117q-78 -66 -172.5 -101.5t-196.5 -35.5q-76 0 -134.5 16.5t-98.5 57t-60.5 109.5t-20.5 175v662h136v-662q0 -69 11.5 -116.5t36.5 -76.5t63.5 -42t92.5 -13q93 0 180 34t163 88v788h136v-1000zM766 1446l157 -66l-268 -248l-110 40z" />
<glyph unicode="&#xfb;" horiz-adv-x="1221" d="M212 0zM1031 0h-136v117q-78 -66 -172.5 -101.5t-196.5 -35.5q-76 0 -134.5 16.5t-98.5 57t-60.5 109.5t-20.5 175v662h136v-662q0 -69 11.5 -116.5t36.5 -76.5t63.5 -42t92.5 -13q93 0 180 34t163 88v788h136v-1000zM463 1131h-188l306 232h104l305 -232h-190l-168 119z " />
<glyph unicode="&#xfc;" horiz-adv-x="1221" d="M212 0zM1031 0h-136v117q-78 -66 -172.5 -101.5t-196.5 -35.5q-76 0 -134.5 16.5t-98.5 57t-60.5 109.5t-20.5 175v662h136v-662q0 -69 11.5 -116.5t36.5 -76.5t63.5 -42t92.5 -13q93 0 180 34t163 88v788h136v-1000zM289 1301h197v-170h-197v170zM772 1301h198v-170 h-198v170z" />
<glyph unicode="&#xfd;" horiz-adv-x="1063" d="M86 0zM595 -50q-35 -106 -68.5 -175.5t-73 -110.5t-90 -57.5t-119.5 -16.5q-27 0 -55.5 4t-48.5 12l16 106q4 0 15.5 -2t25 -4t26.5 -4t19 -2q40 0 68 10t52 37t48 76t55 127l-379 1050h140l302 -880l315 880h139l-389 -1050h2zM687 1446l157 -66l-268 -248l-110 40z" />
<glyph unicode="&#xfe;" horiz-adv-x="1113" d="M132 1400h136v-474q28 23 59 40.5t67 29.5t79.5 18t97.5 6q98 0 177.5 -36.5t136 -104t87.5 -162.5t31 -213t-31 -214.5t-87.5 -165.5t-136 -106.5t-177.5 -37.5q-52 0 -94.5 6t-79.5 17.5t-68.5 28.5t-60.5 40v-472h-136v1800zM867 504q0 198 -84.5 302t-259.5 104 q-70 0 -137 -21t-118 -53v-673q51 -32 118 -52.5t137 -20.5q175 0 259.5 107t84.5 307z" />
<glyph unicode="&#xff;" horiz-adv-x="1063" d="M86 0zM595 -50q-35 -106 -68.5 -175.5t-73 -110.5t-90 -57.5t-119.5 -16.5q-27 0 -55.5 4t-48.5 12l16 106q4 0 15.5 -2t25 -4t26.5 -4t19 -2q40 0 68 10t52 37t48 76t55 127l-379 1050h140l302 -880l315 880h139l-389 -1050h2zM210 1301h197v-170h-197v170zM693 1301 h198v-170h-198v170z" />
<glyph unicode="&#x131;" horiz-adv-x="377" d="M132 1000h136v-1000h-136v1000z" />
<glyph unicode="&#x152;" horiz-adv-x="1781" d="M934 0q-10 -1 -27 -2t-35.5 -1.5t-37 -0.5h-31.5q-161 0 -285.5 48t-209 136.5t-128 215t-43.5 284.5q0 157 47 283.5t135 215.5t215 137t287 48q21 0 41 -0.5t39 -3.5h766v-110h-638v-492h571v-110h-571v-538h638v-110h-733zM803 106q12 0 38.5 1t51.5 3v1137 q-17 3 -34.5 5t-37.5 2q-126 0 -227.5 -40.5t-173 -115.5t-109.5 -181t-38 -237t35 -237t102.5 -181t166 -115.5t226.5 -40.5z" />
<glyph unicode="&#x153;" horiz-adv-x="1939" d="M125 500q0 121 31.5 217t90.5 163.5t145 103.5t194 36q140 0 246.5 -59.5t168.5 -169.5q54 112 152.5 170.5t238.5 58.5q88 0 161 -26t125.5 -76.5t81.5 -124t29 -167.5v-110h-712v-24q0 -95 21.5 -170t65 -126.5t109 -78.5t152.5 -27q58 0 103.5 6.5t82 16t64.5 20.5 t50 21l41 -102q-61 -33 -148 -52.5t-187 -19.5q-160 0 -267.5 58t-163.5 169q-62 -109 -168 -168t-246 -59q-108 0 -194 35.5t-145 103t-90.5 163.5t-31.5 218zM261 500q0 -106 23 -183t66 -127.5t102.5 -75t133.5 -24.5q75 0 138.5 24.5t110 75t73 127.5t26.5 183 t-26.5 183.5t-73 128t-110 74.5t-138.5 24q-74 0 -133.5 -24t-102.5 -74.5t-66 -128t-23 -183.5zM1399 910q-63 0 -116 -14t-93 -47t-66.5 -87.5t-38.5 -135.5h568q0 76 -21 129.5t-56.5 88t-81 50.5t-95.5 16z" />
<glyph unicode="&#x178;" horiz-adv-x="1184" d="M90 0zM594 636l353 724h152l-434 -870v-490h-136v484l-439 876h152zM279 1640h197v-170h-197v170zM762 1640h198v-170h-198v170z" />
<glyph unicode="&#x2c6;" horiz-adv-x="824" d="M276 1148h-188l306 232h104l305 -232h-190l-168 119z" />
<glyph unicode="&#x2da;" horiz-adv-x="664" d="M335 1616q45 0 84.5 -15.5t69.5 -42t47.5 -61.5t17.5 -75q0 -41 -17.5 -75t-47.5 -59.5t-69.5 -39.5t-84.5 -14t-85.5 14t-71 39.5t-48.5 59.5t-18 75q0 40 18 75t48.5 61.5t71 42t85.5 15.5zM335 1344q38 0 61 23t23 55q0 33 -23 58.5t-61 25.5q-17 0 -33 -7 t-28.5 -18.5t-20 -27t-7.5 -31.5t7.5 -30t20 -24.5t28.5 -17t33 -6.5z" />
<glyph unicode="&#x2dc;" horiz-adv-x="965" d="M636 1250q35 0 70 24.5t52 71.5l97 -66q-14 -36 -36.5 -64t-49 -48t-55 -32t-54.5 -16q-20 -4 -42 -4q-53 0 -96.5 23t-84.5 51q-31 23 -57.5 33.5t-46.5 10.5q-17 -1 -31 -4.5t-28 -13.5t-28.5 -28t-31.5 -46l-96 60q12 35 34 63t49 48t56 33t55 18q18 3 34 3 q55 0 100 -23.5t86 -51.5q29 -24 56.5 -32t47.5 -10z" />
<glyph unicode="&#x2000;" horiz-adv-x="930" />
<glyph unicode="&#x2001;" horiz-adv-x="1860" />
<glyph unicode="&#x2002;" horiz-adv-x="930" />
<glyph unicode="&#x2003;" horiz-adv-x="1860" />
<glyph unicode="&#x2004;" horiz-adv-x="620" />
<glyph unicode="&#x2005;" horiz-adv-x="465" />
<glyph unicode="&#x2006;" horiz-adv-x="310" />
<glyph unicode="&#x2007;" horiz-adv-x="310" />
<glyph unicode="&#x2008;" horiz-adv-x="232" />
<glyph unicode="&#x2009;" horiz-adv-x="372" />
<glyph unicode="&#x200a;" horiz-adv-x="103" />
<glyph unicode="&#x2010;" horiz-adv-x="794" d="M118 586v120h566v-120h-566z" />
<glyph unicode="&#x2011;" horiz-adv-x="794" d="M118 586v120h566v-120h-566z" />
<glyph unicode="&#x2012;" horiz-adv-x="794" d="M118 586v120h566v-120h-566z" />
<glyph unicode="&#x2013;" horiz-adv-x="1242" d="M112 610v110h1014v-110h-1014z" />
<glyph unicode="&#x2014;" horiz-adv-x="1893" d="M112 610v110h1645v-110h-1645z" />
<glyph unicode="&#x2018;" horiz-adv-x="458" d="M288 946h-200l184 456l112 -20z" />
<glyph unicode="&#x2019;" horiz-adv-x="458" d="M178 1402h200l-180 -456l-114 20z" />
<glyph unicode="&#x201a;" horiz-adv-x="604" d="M134 0zM204 158h146l-122 -404l-94 14z" />
<glyph unicode="&#x201c;" horiz-adv-x="754" d="M74 946zM274.011 946.086h-199.987l179.988 455.972l113.993 -19.999zM569.011 946.086h-199.987l179.988 455.972l113.993 -19.999z" />
<glyph unicode="&#x201d;" horiz-adv-x="754" d="M104 946zM198 1402h200l-180 -456l-114 20zM487 1402h200l-180 -456l-114 20z" />
<glyph unicode="&#x201e;" horiz-adv-x="752" d="M134 0zM204 158h146l-122 -404l-94 14zM467 158h146l-122 -404l-94 14z" />
<glyph unicode="&#x2022;" horiz-adv-x="681" d="M344 890q45 0 86 -16t71.5 -43.5t49 -64.5t18.5 -78t-18.5 -77.5t-49 -63.5t-71.5 -43t-86 -16q-48 0 -89.5 16t-71.5 43t-47.5 63.5t-17.5 77.5t17.5 78t47.5 64.5t71.5 43.5t89.5 16z" />
<glyph unicode="&#x2026;" horiz-adv-x="1615" d="M166 0zM166 132h152v-132h-152v132zM745 132h152v-132h-152v132zM1343 132h152v-132h-152v132z" />
<glyph unicode="&#x202f;" horiz-adv-x="372" />
<glyph unicode="&#x2039;" horiz-adv-x="643" d="M532 112l-76 -70l-348 392v84l348 400l76 -70l-301 -372z" />
<glyph unicode="&#x203a;" horiz-adv-x="643" d="M108 848l80 70l344 -392v-84l-344 -400l-80 70l302 371z" />
<glyph unicode="&#x2044;" horiz-adv-x="1128" d="M947 1360h107l-938 -1360h-112z" />
<glyph unicode="&#x205f;" horiz-adv-x="465" />
<glyph unicode="&#x2074;" horiz-adv-x="776" d="M583 824v-156h-113v156h-427v66l422 490h118v-468h109v-88h-109zM470 912v338l-290 -338h290z" />
<glyph unicode="&#x20ac;" d="M103 876h195q19 116 61.5 209.5t104.5 159t143.5 100.5t178.5 35q106 0 184 -22.5t132 -49.5l-52 -94q-55 26 -125.5 41t-145.5 15q-65 0 -121.5 -23t-101.5 -71t-77 -122.5t-47 -177.5h556v-110h-567q-1 -20 -1.5 -41t-0.5 -43v-39t2 -37h567v-110h-556 q16 -105 51.5 -182t85 -126.5t112 -73.5t133.5 -24q47 0 88 6.5t76.5 16t64 20.5t50.5 21l38 -92q-52 -35 -135.5 -58.5t-195.5 -23.5q-101 0 -184.5 36t-148 103t-108 162.5t-62.5 214.5h-194v110h182q-1 19 -1.5 37.5t-0.5 38.5v42t2 42h-182v110z" />
<glyph unicode="&#x2122;" horiz-adv-x="1481" d="M1071 1094l170 266h132v-494h-110v371l-141 -221l5 -8h-111l4 6l-143 227v-375h-105v494h130zM424 1284v-418h-102v418h-213v76h528v-76h-213z" />
<glyph unicode="&#xe000;" horiz-adv-x="1000" d="M0 1000h1000v-1000h-1000v1000z" />
<glyph horiz-adv-x="488" d="M0 0z" />
</font>
</defs>
</svg>
